Поиск

2021 Yuval Ron - Sacred Spiral {Metta Mindfulness Music} [24-48]

2021 Yuval Ron - Sacred Spiral {Metta Mindfulness Music} [24-48]
Стили:
Носитель:
WEB
Формат:
PCM
Тип рипа:
tracks
Контейнер:
FLAC (*.flac)
Количество каналов:
2.0
Разрядность/ЧД:
24/48
Битрейт аудио:
lossless
Время звучания:
01:12:16
Наличие сканов:
только обложка

Треклист:

01 - Ethereal Voyage (10:10)
02 - Voice of Freedom (09:41)
03 - Mind Vision Invocation (10:34)
04 - Mysteries of the Heart (11:10)
05 - Water of Forgiveness (09:34)
06 - Darkness into Light (10:24)
07 - Deep Earth Chant (10:40)

Лог проверки качества
foobar2000 1.4.2 / Dynamic Range Meter 1.1.1
log date: 2022-02-05 17:21:17
--------------------------------------------------------------------------------
Analyzed: Yuval Ron / Sacred Spiral
--------------------------------------------------------------------------------
DR         Peak         RMS     Duration Track
--------------------------------------------------------------------------------
DR7       -1.00 dB   -10.93 dB     10:11 01-Ethereal Voyage (feat. Гљyanga Bold)
DR7       -1.00 dB   -10.65 dB      9:42 02-Voice of Freedom (feat. Гљyanga Bold)
DR7       -1.00 dB   -11.21 dB     10:35 03-Mind Vision Invocation (feat. Гљyanga Bold)
DR9       -1.00 dB   -13.03 dB     11:10 04-Mysteries of the Heart (feat. Гљyanga Bold)
DR8       -1.00 dB   -11.96 dB      9:34 05-Water of Forgiveness (feat. Гљyanga Bold)
DR7       -1.00 dB   -10.34 dB     10:24 06-Darkness into Light (feat. Гљyanga Bold)
DR7       -1.00 dB   -10.43 dB     10:41 07-Deep Earth Chant (feat. Гљyanga Bold)
--------------------------------------------------------------------------------
Number of tracks:  7
Official DR value: DR8
Samplerate:        48000 Hz
Channels:          2
Bits per sample:   24
Bitrate:           1446 kbps
Codec:             FLAC
================================================================================
По всем вопросам пишите личное сообщение пользователю M0p94ok.
13:38
190
Нет комментариев. Ваш будет первым!