Поиск

1961 Donald Byrd - Royal Flush (2021) {Music Manager} [24-48]

1961 Donald Byrd - Royal Flush (2021) {Music Manager} [24-48]
Стили:
Дата записи диска:
21 сентября 1961
Место записи:
Rudy Van Gelder Studio, Englewood Cliffs, New Jersey, USA
Дата переиздания диска:
20 августа 2021
Издатель (лейбл):
Носитель:
WEB
Формат:
PCM
Тип рипа:
tracks
Контейнер:
FLAC (*.flac)
Количество каналов:
2.0
Разрядность/ЧД:
24/48
Битрейт аудио:
lossless
Время звучания:
00:40:45
Наличие сканов:
только обложка

Треклист:

01 - Hush 06:21
02 - I'm a Fool to Want You 06:13
03 - Jorgie's 08:04
04 - Shangri-La 06:34
05 - 6 M's 06:30
06 - Requiem 07:03

Состав:
  • Pepper Adams     Sax (Baritone)
  • Bob Blumenthal     Liner Note Adaptation
  • Donald Byrd     Composer, Trumpet
  • Michael Cuscuna     Reissue Producer
  • Leonard Feather     Original Liner Notes
  • Herbie Hancock     Composer, Piano
  • Billy Higgins     Drums
  • Alfred Lion     Audio Production, Producer
  • Rudy Van Gelder     Remastering
  • Butch Warren     Bass, Bass (Upright)
Лог проверки качества
foobar2000 1.4.3 / Dynamic Range Meter 1.1.1
log date: 2021-08-23 21:48:46
--------------------------------------------------------------------------------
Analyzed: Donald Byrd / Royal Flush
--------------------------------------------------------------------------------
DR         Peak         RMS     Duration Track
--------------------------------------------------------------------------------
DR10      -0.36 dB   -13.11 dB      6:22 01-Hush
DR10      -0.02 dB   -14.97 dB      6:14 02-I'm a Fool to Want You
DR10      -0.41 dB   -13.43 dB      8:05 03-Jorgie's
DR9       -0.39 dB   -11.34 dB      6:34 04-Shangri-La
DR11      -0.45 dB   -13.85 dB      6:30 05-6 M's
DR10      -0.46 dB   -13.05 dB      7:04 06-Requiem
--------------------------------------------------------------------------------
Number of tracks:  6
Official DR value: DR10
Samplerate:        48000 Hz
Channels:          2
Bits per sample:   24
Bitrate:           1227 kbps
Codec:             FLAC
================================================================================
По всем вопросам пишите личное сообщение пользователю M0p94ok.
15:45
183
Нет комментариев. Ваш будет первым!