Поиск

2021 Uli Kempendorff's Field - Someone Talked {enja, Yellowbird} [24-96]

2021 Uli Kempendorff's Field - Someone Talked {enja, Yellowbird} [24-96]
Стили:
Место записи:
Hansa Studios, Berlin, Germany
Дата издания диска:
16 июля 2021
Издатель (лейбл):
Носитель:
WEB
Формат:
PCM
Тип рипа:
tracks
Контейнер:
FLAC (*.flac)
Количество каналов:
2.0
Разрядность/ЧД:
24/96
Битрейт аудио:
lossless
Время звучания:
00:35:38
Наличие сканов:
только обложка

01 - Everything (04:39)
02 - Open Up (05:01)
03 - Pm&Cc (06:00)
04 - Dresden (05:35)
05 - Kopfkino (05:29)
06 - Argh (05:18)
07 - Pm&Cc Reprise (03:33)

Состав:
  •     Double Bass – Jonas Westergaard
  •     Drums – Peter Bruun
  •     Tenor Saxophone, Composed By – Uli Kempendorff
  •     Vibraphone – Christopher Dell
Лог проверки качества
foobar2000 1.4.2 / Dynamic Range Meter 1.1.1
log date: 2021-08-05 09:31:06
--------------------------------------------------------------------------------
Analyzed: Uli Kempendorff's Field / Someone Talked
--------------------------------------------------------------------------------
DR         Peak         RMS     Duration Track
--------------------------------------------------------------------------------
DR8       -0.72 dB   -10.73 dB      4:40 01-Everything
DR9       -0.72 dB   -11.89 dB      5:01 02-Open Up
DR12      -0.72 dB   -16.19 dB      6:01 03-Pm&Cc
DR10      -0.72 dB   -12.72 dB      5:36 04-Dresden
DR8       -0.72 dB   -12.35 dB      5:29 05-Kopfkino
DR13      -0.72 dB   -17.54 dB      5:19 06-Argh
DR12      -0.72 dB   -16.06 dB      3:33 07-Pm&Cc Reprise
--------------------------------------------------------------------------------
Number of tracks:  7
Official DR value: DR10
Samplerate:        96000 Hz
Channels:          2
Bits per sample:   24
Bitrate:           2656 kbps
Codec:             FLAC
================================================================================
Приватный:
Нет (DHT включён)
Размер:
716.68 Мб (751,488,785 байт) » файлов: 8
Участники:
0 раздают, 0 качают (0 участников всего)
Внешние участники:
1 раздают, 0 качают (1 участников всего) [ Обновить ]
23:23
518
Нет комментариев. Ваш будет первым!