Поиск

1955 Betty Bennett - Nobody Else But Me (2021) {RevOla} [24-96]

1955 Betty Bennett - Nobody Else But Me (2021) {RevOla} [24-96]
Стили:
Дата переиздания диска:
30 июля 2021
Издатель (лейбл):
Носитель:
WEB
Формат:
PCM
Тип рипа:
tracks
Контейнер:
FLAC (*.flac)
Количество каналов:
2.0
Разрядность/ЧД:
24/96
Битрейт аудио:
lossless
Время звучания:
00:36:41
Наличие сканов:
только обложка

Треклист:

01. Nobody Else But Me  03:34
02. This Is The Moment  03:16
03. Mountain Greenery  02:31
04. You Took Advantage Of Me  02:46
05. Island in the West Indies  02:53
06. Treat Me Rough  02:46
07. My Man's Gone Now  03:23
08. The Next Time I Care  03:10
09. Tomorrow Mountain  03:24
10. You're Driving Me Crazy  02:49
11. Sidewalks of Cuba  02:30
12. Have Yourself A Merry Little Christmas  03:35

Состав:
  •     Alto Saxophone – Harry Klee
  •     Bass – Ralph Pena*
  •     Bass, Arranged By – Jimmy Giuffre
  •     Drums – Irv Cottler
  •     Guitar – Barney Kessel
  •     Piano, Arranged By – André Previn
  •     Tenor Saxophone – Bob Cooper
  •     Trombone – Frank Rosolino
  •     Trumpet, Flugelhorn, Arranged By – Shorty Rogers
  •     Vocals – Betty Bennett
Лог проверки качества
foobar2000 1.4.2 / Dynamic Range Meter 1.1.1
log date: 2021-08-03 14:21:29
--------------------------------------------------------------------------------
Analyzed: Betty Bennett / Nobody Else But Me
--------------------------------------------------------------------------------
DR         Peak         RMS     Duration Track
--------------------------------------------------------------------------------
DR10      -3.24 dB   -15.37 dB      3:34 01-Nobody Else But Me (Remastered)
DR10      -3.31 dB   -15.40 dB      3:16 02-This Is The Moment (Remastered)
DR10      -3.20 dB   -16.93 dB      2:32 03-Mountain Greenery (Remastered)
DR11      -3.02 dB   -15.34 dB      2:46 04-You Took Advantage Of Me (Remastered)
DR11      -4.06 dB   -16.01 dB      2:53 05-Island in the West Indies (Remastered)
DR9       -3.12 dB   -14.96 dB      2:46 06-Treat Me Rough (Remastered)
DR11      -3.01 dB   -15.45 dB      3:23 07-My Man's Gone Now (Remastered)
DR10      -3.01 dB   -15.55 dB      3:11 08-The Next Time I Care (Remastered)
DR10      -3.11 dB   -15.62 dB      3:24 09-Tomorrow Mountain (Remastered)
DR8       -3.85 dB   -14.61 dB      2:50 10-You're Driving Me Crazy (Remastered)
DR11      -3.79 dB   -16.44 dB      2:30 11-Sidewalks of Cuba (Remastered)
DR10      -3.09 dB   -14.93 dB      3:35 12-Have Yourself A Merry Little Christmas (Remastered)
--------------------------------------------------------------------------------
Number of tracks:  12
Official DR value: DR10
Samplerate:        96000 Hz
Channels:          2
Bits per sample:   24
Bitrate:           1264 kbps
Codec:             FLAC
================================================================================
По всем вопросам пишите личное сообщение пользователю M0p94ok.
18:44
171
Нет комментариев. Ваш будет первым!