Поиск

2021 Trigon - Urban {3645163} [24-48]

2021 Trigon - Urban {3645163} [24-48]
Место записи:
Кишинёв, Молдавия
Дата издания диска:
11 мая 2021
Носитель:
WEB
Формат:
PCM
Тип рипа:
tracks
Контейнер:
FLAC (*.flac)
Количество каналов:
2.0
Разрядность/ЧД:
24/48
Битрейт аудио:
lossless
Наличие сканов:
только обложка

01. Braul  04:12
02. Cararea  06:02
03. Impletit la 11  07:15
04. Zongora  04:20
05. Sarpele Rosu  06:23
06. Elfia  06:36
07. Impletit la 5  06:08
08. Tu Misa  06:00
09. Joc-Ieri  04:34
10. Miraza  05:30

Состав:
  • Anatolie Stefanet — Viola
  • Vali Boghean — Vocal, Flugelhorn, Sax, Tilinca, Fluer.
  • Dan Bruma — Guitar
  • Gari Tverdohleb — Drums
  • Mix engineer — Ion Slivca
  • Master engineer — Antonina Larina
Лог проверки качества
foobar2000 1.4.2 / Dynamic Range Meter 1.1.1
log date: 2022-01-28 13:28:18
--------------------------------------------------------------------------------
Analyzed: Trigon / Urban
--------------------------------------------------------------------------------
DR         Peak         RMS     Duration Track
--------------------------------------------------------------------------------
DR9       -0.50 dB   -13.40 dB      4:12 01-Braul
DR9       -0.33 dB   -11.60 dB      6:02 02-Cararea
DR10      -0.24 dB   -12.53 dB      7:15 03-Impletit la 11
DR12      -0.50 dB   -15.47 dB      4:20 04-Zongora
DR9       -0.29 dB   -14.10 dB      6:23 05-Sarpele Rosu
DR10      -0.34 dB   -13.50 dB      6:37 06-Elfia
DR9       -0.27 dB   -11.80 dB      6:09 07-Impletit la 5
DR10      -0.33 dB   -13.26 dB      6:00 08-Tu Misa
DR11      -0.18 dB   -13.95 dB      4:34 09-Joc-Ieri
DR10      -0.39 dB   -13.43 dB      5:31 10-Miraza
--------------------------------------------------------------------------------
Number of tracks:  10
Official DR value: DR10
Samplerate:        48000 Hz
Channels:          2
Bits per sample:   24
Bitrate:           1514 kbps
Codec:             FLAC
================================================================================
Приватный:
Нет (DHT включён)
Размер:
616.63 Мб (646,584,889 байт) » файлов: 11
Участники:
0 раздают, 0 качают (0 участников всего)
Внешние участники:
--- [ Обновить ]
21:27
392
Нет комментариев. Ваш будет первым!