Поиск

1988 Shirley Horn Trio - Softly (2019) {2xHD} [DSD256]

1988 Shirley Horn Trio - Softly (2019) {2xHD} [DSD256]
Дата записи диска:
1 октября 1987
Место записи:
Mapleshade Studio
Дата переиздания диска:
1 февраля 2019
Издатель (лейбл):
Номер по каталогу:
2XHDJA1140
Носитель:
WEB
Формат:
DSD
Тип рипа:
tracks
Контейнер:
DSF (*.dsf)
Количество каналов:
2.0
Разрядность/ЧД:
256 (11.2MHz/1bit)
Битрейт аудио:
lossless
Наличие сканов:
буклет pdf

1. Since I Fell for You  07:11
2. Dindi (Sung in Portuguese)  06:11
3. You're My Thrill  04:24
4. Summer (Estate)  08:41
5. I Watch You Sleep  06:26
6. Softly, As I Leave You  03:03
7. How Long Has This Been Going On  07:09
8. Forget Me  03:29
9. My How the Time Goes By  05:15

Состав:
  •     Bass – Charles Ables
  •     Drums – Steve Williams (5)
  •     Mastered By – Don Jarvis
  •     Piano, Vocals – Shirley Horn
  •     Producer – Joel E. Siegel
  • Executive Producer — Andre Perry, George H. Buck Jr.
  • Mastering Engineer — René La Flamme, Analog to DSD 256 Transfer
  • Recording Engineer — Pierre Sprey
Лог проверки качества
foobar2000 1.6.8 / Dynamic Range Meter 1.1.1
log date: 2022-01-31 17:57:50
--------------------------------------------------------------------------------
Analyzed: Shirley Horn Trio / Softly
--------------------------------------------------------------------------------
DR         Peak         RMS     Duration Track
--------------------------------------------------------------------------------
DR18      -7.59 dB   -33.11 dB      7:12 01-Since I Fell for You
DR14     -19.11 dB   -38.91 dB      6:12 02-Dindi (Sung in Portuguese)
DR15     -15.73 dB   -38.41 dB      4:25 03-You're My Thrill
DR14     -15.57 dB   -35.02 dB      8:41 04-Summer (Estate)
DR15     -12.91 dB   -36.13 dB      6:36 05-I Watch You Sleep
DR16     -17.87 dB   -39.05 dB      3:03 06-Softly, As I Leave You
DR18     -15.73 dB   -39.52 dB      7:10 07-How Long Has This Been Going On?
DR17      -8.12 dB   -29.57 dB      3:30 08-Forget Me
DR17      -8.16 dB   -31.45 dB      5:16 09-My How the Time Goes By
--------------------------------------------------------------------------------
Number of tracks:  9
Official DR value: DR16
Samplerate:        11289600 Hz / PCM Samplerate: 88200 Hz
Channels:          2
Bits per sample:   1
Bitrate:           22579 kbps
Codec:             DSD256
================================================================================
Скачивание доступно после регистрации!!
Приватный:
Нет (DHT включён)
Размер:
8.21 Гб (8,818,540,069 байт) » файлов: 12
Участники:
0 раздают, 0 качают (0 участников всего)
Внешние участники:
12 раздают, 4 качают (16 участников всего) [ Обновить ]
12:28
366
Нет комментариев. Ваш будет первым!