Поиск

2021 Tommy Turrentine & Stanley Turrentine - Star Bright {Nagel Heyer} [24-44.1]

2021 Tommy Turrentine & Stanley Turrentine - Star Bright {Nagel Heyer} [24-44.1]
Стили:
Дата издания диска:
25 июня 2021
Издатель (лейбл):
Носитель:
WEB
Формат:
PCM
Тип рипа:
tracks
Контейнер:
FLAC (*.flac)
Количество каналов:
2.0
Разрядность/ЧД:
24/44,1
Битрейт аудио:
lossless
Время звучания:
01:42:31
Наличие сканов:
только обложка

Треклист:

01 - The More I See You 04:04
02 - Quiet as It's Kept 06:12
03 - As Long as You're Living 05:57
04 - To Lady 06:08
05 - Deacon Joe 08:41
06 - Nica 04:47
07 - Parisian Sketches - The Tower 03:50
08 - Parisian Sketches - The Champs 03:05
09 - Parisian Sketches - The Caves 03:26
10 - Parisian Sketches - The Left Bank 03:13
11 - Parisian Sketches - The Arch 03:40
12 - When I Grow to Old to Dream 09:54
13 - Juliano 05:43
14 - Un Noveau Complet 03:23
15 - Star Brite 07:48
16 - Petit Déjeuner 04:05
17 - Liberté 06:26
18 - Why Was I Born 06:35
19 - Lotus Blossom 05:34

Состав:
  • Tommy Turrentine — trumpet
  • Stanley Turrentine — tenor saxophone
Лог проверки качества
foobar2000 1.4.3 / Dynamic Range Meter 1.1.1
log date: 2021-11-07 17:27:51
--------------------------------------------------------------------------------
Analyzed: Tommy & Stanley Turrentine / Star Bright
--------------------------------------------------------------------------------
DR         Peak         RMS     Duration Track
--------------------------------------------------------------------------------
DR14      -1.00 dB   -16.21 dB      4:05 01-The More I See You
DR11      -1.00 dB   -15.41 dB      6:13 02-Quiet as It's Kept
DR12      -1.00 dB   -15.83 dB      5:57 03-As Long as You're Living
DR11      -1.00 dB   -15.24 dB      6:09 04-To Lady
DR13      -1.00 dB   -17.59 dB      8:41 05-Deacon Joe
DR12      -1.00 dB   -15.66 dB      4:47 06-Nica
DR11      -1.00 dB   -15.08 dB      3:51 07-Parisian Sketches - The Tower
DR12      -1.00 dB   -15.27 dB      3:06 08-Parisian Sketches - The Champs
DR13      -1.00 dB   -18.28 dB      3:27 09-Parisian Sketches - The Caves
DR13      -1.00 dB   -15.40 dB      3:14 10-Parisian Sketches - The Left Bank
DR10      -1.00 dB   -13.56 dB      3:40 11-Parisian Sketches - The Arch
DR12      -1.00 dB   -15.33 dB      9:55 12-When I Grow to Old to Dream
DR11      -1.00 dB   -15.17 dB      5:44 13-Juliano
DR13      -1.00 dB   -16.37 dB      3:24 14-Un Noveau Complet
DR13      -1.00 dB   -16.99 dB      7:48 15-Star Brite
DR13      -1.00 dB   -15.63 dB      4:06 16-Petit Déjeuner
DR13      -1.00 dB   -15.79 dB      6:26 17-Liberté
DR11      -1.00 dB   -15.18 dB      6:36 18-Why Was I Born
DR10      -1.00 dB   -14.03 dB      5:35 19-Lotus Blossom
--------------------------------------------------------------------------------
Number of tracks:  19
Official DR value: DR12
Samplerate:        44100 Hz
Channels:          2
Bits per sample:   24
Bitrate:           1679 kbps
Codec:             FLAC
================================================================================
По всем вопросам пишите личное сообщение пользователю M0p94ok.
12:29
121
Нет комментариев. Ваш будет первым!