Поиск

2010 Dan Nimmer Trio - Modern-Day Blues (2016) {Venus} [DSD64 ISO]

2010 Dan Nimmer Trio - Modern-Day Blues (2016) {Venus} [DSD64 ISO]
Стили:
Дата записи диска:
20 декабря - 21 декабря 2009
Место записи:
Avatar Studios, New York City, NY, USA
Издатель (лейбл):
Номер по каталогу:
VHGD-186
Носитель:
SACD
Формат:
DSD
Тип рипа:
image
Контейнер:
ISO (*.iso)
Количество каналов:
2.0
Разрядность/ЧД:
64 (2,8 MHz/1 Bit)
Битрейт аудио:
lossless
Время звучания:
01:07:07
Наличие сканов:
только обложка
Треклист:

01. Blue Bossa《 K. Dorham 》
02. Love Is A Many-Splendored Things《 S. Fain 》
03. Cleopatra's Dream《 B. Powell 》
04. Out Of The Past《 B. Golson 》
05. Black Pearls《 J. Coltrane 》
06. Le Coiffeur《 D. Gordon 》
07. Wabash《 C. Adderley 》
08. How Could You Do A Thing Like That To Me《 A. Roberts 》
09. Uh Huh《 H. Mobley 》
10. I'm An Old Cowhand《 J. Mercer 》
11. Modern - Day Blues《 D. Nimmer 》
12. Single Petal Of A Rose《 D. Ellington 》
13. Reflections《 T. Monk 》

Состав:
  • Dan Nimmer — piano
  • David Wong — bass
  • Pete Van Nostrand — drums
  • Joe Temperley — bass clarinet (12 трек)
Лог проверки качества
foobar2000 1.6.7 / Dynamic Range Meter 1.1.1
log date: 2021-11-08 15:15:43
--------------------------------------------------------------------------------
Analyzed: DAN NIMMER TRIO / Modern - Day Blues
--------------------------------------------------------------------------------
DR         Peak         RMS     Duration Track
--------------------------------------------------------------------------------
DR8       -4.82 dB   -14.83 dB      5:06 01-Blue Bossa
DR8       -4.71 dB   -14.58 dB      6:31 02-Love Is A Many-Splendored Thing
DR8       -4.57 dB   -13.73 dB      2:52 03-Cleopatra's Dream
DR8       -4.52 dB   -14.32 dB      5:34 04-Out Of The Past
DR8       -4.44 dB   -13.68 dB      5:09 05-Black Pearls
DR8       -4.37 dB   -13.97 dB      4:29 06-Le Coiffeur
DR7       -4.76 dB   -13.16 dB      6:00 07-Wabash
DR8       -4.33 dB   -15.29 dB      6:46 08-How Could You Do A Thing Like That To Me
DR8       -4.29 dB   -13.60 dB      5:15 09-Uh Huh
DR7       -4.47 dB   -12.91 dB      4:08 10-I'm An Old Cowhand
DR7       -4.68 dB   -13.27 dB      5:33 11-Modern - Day Blues
DR8       -4.60 dB   -15.67 dB      5:24 12-Single Petal Of A Rose
DR11      -4.97 dB   -21.20 dB      4:22 13-Reflections
--------------------------------------------------------------------------------
Number of tracks:  13
Official DR value: DR8
Samplerate:        2822400 Hz / PCM Samplerate: 88200 Hz
Channels:          2
Bits per sample:   1
Bitrate:           5645 kbps
Codec:             DSD64
================================================================================
09:41
386
Нет комментариев. Ваш будет первым!