Поиск

2021 Thommy Andersson - Wood Circles {u n i t} [24-48]

2021 Thommy Andersson - Wood Circles {u n i t} [24-48]
Дата издания диска:
16 июля 2021
Номер по каталогу:
UTR 4997
Носитель:
WEB
Формат:
PCM
Тип рипа:
tracks
Контейнер:
FLAC (*.flac)
Количество каналов:
2.0
Разрядность/ЧД:
24/48
Битрейт аудио:
lossless
Время звучания:
00:38:57
Наличие сканов:
только обложка

Треклист:

01 - Whirly Birds (00:02:28)
02 - Wood Circles (00:03:54)
03 - Floden (00:05:10)
04 - And There He Goes (00:03:22)
05 - Banken (00:03:16)
06 - Fanfar (00:05:23)
07 - Storsjopolska (00:02:51)
08 - Svantes Vaggvisa (00:04:14)
09 - The Barn (00:02:29)
10 - Waverly (00:02:45)
11 - Vintervals (00:03:01)

Состав:
  • Bass, Cello, Composed By – Thommy Andersson
  • Mastered By – John Fomsgaard
  • Mixed By – August Wanngren
  • Piano – Henrik Lindstrand
  • Saxophone, Flute, Alto Flute, Bass Clarinet, Clarinet – Anders Banke
  • Trumpet – Gunnar Halle
  • Tuba, Bass Trombone, Vocals – Jacob Munck
  • Vibraphone, Cymbal – Bent Clausen
  • Vocals – Josefine Cronholm
Лог проверки качества
foobar2000 1.4.2 / Dynamic Range Meter 1.1.1
log date: 2021-06-27 12:47:49

--------------------------------------------------------------------------------
Analyzed: Thommy Andersson / Wood Circles
--------------------------------------------------------------------------------

DR         Peak         RMS     Duration Track
--------------------------------------------------------------------------------
DR9       -0.10 dB   -12.77 dB      2:29 01-Whirly Birds
DR9       -0.10 dB   -11.99 dB      3:54 02-Wood Circles
DR11      -0.10 dB   -14.13 dB      5:10 03-Floden
DR11      -0.10 dB   -14.46 dB      3:22 04-And There He Goes
DR12      -0.12 dB   -16.98 dB      3:17 05-Bänken
DR10      -0.10 dB   -12.80 dB      5:23 06-Fanfar
DR9       -0.10 dB   -12.81 dB      2:52 07-Storsjöpolska
DR10      -0.10 dB   -14.46 dB      4:14 08-Svantes Vaggvisa
DR9       -0.10 dB   -11.48 dB      2:29 09-The Barn
DR10      -0.10 dB   -11.69 dB      2:46 10-Waverly
DR10      -0.10 dB   -13.05 dB      3:01 11-Vintervals
--------------------------------------------------------------------------------

Number of tracks:  11
Official DR value: DR10

Samplerate:        48000 Hz
Channels:          2
Bits per sample:   24
Bitrate:           1412 kbps
Codec:             FLAC
================================================================================
Any questions - support@pro-jazz.com
To become a power user - read FAQ.
20:44
370
Нет комментариев. Ваш будет первым!