Поиск

2019 Jamie Saft Quartet - Hidden Corners {RareNoise} [24-44.1]

2019 Jamie Saft Quartet - Hidden Corners {RareNoise} [24-44.1]
Место записи:
Potterville International Sound, NY, USA
Дата издания диска:
28 июня 2019
Номер по каталогу:
RNR109
Носитель:
WEB
Формат:
PCM
Тип рипа:
tracks
Контейнер:
FLAC (*.flac)
Количество каналов:
2.0
Разрядность/ЧД:
24/44,1
Битрейт аудио:
lossless
Наличие сканов:
только обложка

1. Positive Way  05:06
2. Seven Are Double  05:41
3. Yesternight  08:07
4. 231 Gates  03:12
5. Turn at Every Moment  05:19
6. Hidden Corners  08:10
7. The Anteroom  04:10
8. Landrace  04:56

Состав:
  • Acoustic Bass – Bradley Christopher Jones
  • Drums – Hamid Drake
  • Executive-Producer – Giacomo Bruzzo
  • Liner Notes [English] – Eden Pearlstein
  • Mixed By, Mastered By – Christian Castagno
  • Piano, Composer – Jamie Saft
  • Producer – Christian Castagno*, Jamie Saft
  • Recorded By – Brian Gunn (4), Jamie Saft
  • Technician [Piano Tuned And Prepared By] – Steve Greenstein
  • Tenor Saxophone, Soprano Saxophone, Flute – Dave Liebman
Лог проверки качества
foobar2000 1.6.2 / Dynamic Range Meter 1.1.1
log date: 2021-11-11 12:42:59

--------------------------------------------------------------------------------
Analyzed: Jamie Saft Quartet / Hidden Corners
--------------------------------------------------------------------------------

DR         Peak         RMS     Duration Track
--------------------------------------------------------------------------------
DR9        0.00 dB   -12.11 dB      5:07 01-Positive Way
DR7        0.00 dB    -9.43 dB      5:41 02-Seven Are Double
DR8        0.00 dB   -11.00 dB      8:08 03-Yesternight
DR12       0.00 dB   -17.70 dB      3:13 04-231 Gates
DR10       0.00 dB   -14.63 dB      5:20 05-Turn at Every Moment
DR11       0.00 dB   -13.67 dB      8:10 06-Hidden Corners
DR14      -1.65 dB   -24.58 dB      4:11 07-The Anteroom
DR8        0.00 dB   -10.10 dB      4:56 08-Landrace
--------------------------------------------------------------------------------

Number of tracks:  8
Official DR value: DR10

Samplerate:        44100 Hz
Channels:          2
Bits per sample:   24
Bitrate:           1476 kbps
Codec:             FLAC
================================================================================
Скачивание доступно после регистрации!!
Приватный:
Нет (DHT включён)
Размер:
462.28 Мб (484,740,783 байт) » файлов: 10
Участники:
0 раздают, 0 качают (0 участников всего)
Внешние участники:
--- [ Обновить ]
Скорость:
394.16 Кб/c 0/c
13:54
530
Нет комментариев. Ваш будет первым!