Поиск

2021 Terence Blanchard - Absence {Blue Note} [24-96]

2021 Terence Blanchard - Absence {Blue Note} [24-96]
Дата издания диска:
27 августа 2021
Издатель (лейбл):
Носитель:
WEB
Формат:
PCM
Тип рипа:
tracks
Контейнер:
FLAC (*.flac)
Количество каналов:
2.0
Разрядность/ЧД:
24/96
Битрейт аудио:
lossless
Время звучания:
01:04:51
Наличие сканов:
только обложка

01 - Absence 06:54
02 - The Elders 06:03
03 - Fall 05:37
04 - I Dare You (Intro) 01:36
05 - I Dare You 07:46
06 - Envisioned Reflections (Intro) 01:32
07 - Envisioned Reflections 02:35
08 - The Second Wave 10:43
09 - When It Was Now 05:22
10 - Dark Horse 07:17
11 - Diana 07:06
12 - More Elders 02:20

Состав:
  • Fabian Almazan     Piano, Synthesizer
  • Charles Altura     Composer, Guitar
  • David Balakrishnan     Artistic Director, Composer, Violin
  • Terence Blanchard     Composer, Producer
  • Robin Burgess     Executive Producer, Producer
  • David Ginyard     Bass, Composer, Synthesizer
  • Greg Hayes     Engineer
  • Gavin Lurssen     Mastering
  • Malcolm Parson     Cello
  • Stuart Schenk     Assistant
  • Oscar Seaton     Cymbals, Drums, Zildjian
  • Gabriel Terracciano     Violin
  • Benjamin von Gutzeit     Viola
Лог проверки качества
foobar2000 1.4.3 / Dynamic Range Meter 1.1.1
log date: 2021-09-08 22:21:09
--------------------------------------------------------------------------------
Analyzed: Terence Blanchard / Absence
--------------------------------------------------------------------------------
DR         Peak         RMS     Duration Track
--------------------------------------------------------------------------------
DR8       -0.20 dB   -11.19 dB      6:55 01-Absence
DR8       -0.20 dB   -11.00 dB      6:03 02-The Elders
DR8       -0.20 dB   -11.76 dB      5:38 03-Fall
DR14      -4.44 dB   -21.19 dB      1:36 04-I Dare You (Intro)
DR8       -0.20 dB   -10.05 dB      7:47 05-I Dare You
DR12      -6.28 dB   -22.06 dB      1:32 06-Envisioned Reflections (Intro)
DR7       -0.21 dB   -10.16 dB      2:36 07-Envisioned Reflections
DR13      -2.94 dB   -19.67 dB     10:44 08-The Second Wave
DR11      -0.20 dB   -13.35 dB      5:22 09-When It Was Now
DR6       -0.20 dB    -7.96 dB      7:17 10-Dark Horse
DR10      -0.28 dB   -15.41 dB      7:06 11-Diana
DR7       -0.20 dB   -10.96 dB      2:20 12-More Elders
--------------------------------------------------------------------------------
Number of tracks:  12
Official DR value: DR9
Samplerate:        96000 Hz
Channels:          2
Bits per sample:   24
Bitrate:           2775 kbps
Codec:             FLAC
================================================================================
Приватный:
Нет (DHT включён)
Размер:
1.27 Гб (1,366,826,768 байт) » файлов: 17
Участники:
0 раздают, 0 качают (0 участников всего)
Внешние участники:
8 раздают, 2 качают (10 участников всего) [ Обновить ]
19:29
551
Нет комментариев. Ваш будет первым!