Поиск

2021 Pat Metheny - Side-Eye NYC (V1.IV) {Modern Recordings} [24-48]

2021 Pat Metheny - Side-Eye NYC (V1.IV) {Modern Recordings} [24-48]
Дата издания диска:
10 сентября 2021
Носитель:
WEB
Формат:
PCM
Тип рипа:
tracks
Контейнер:
FLAC (*.flac)
Количество каналов:
2.0
Разрядность/ЧД:
24/48
Битрейт аудио:
lossless
Время звучания:
01:02:41
Наличие сканов:
только обложка

01 - It Starts When We Disappear 13:47
02 - Better Days Ahead 05:26
03 - Timeline 07:12
04 - Bright Size Life 05:34
05 - Lodger 06:16
06 - Sirabhorn 05:07
07 - Turnaround 07:42
08 - Zenith Blue 11:37

Состав:
  • James Francies     Arranger, Keyboards, Organ, Piano, Synthesizer
  • Marcus Gilmore     Drums
  • Pete Karam     Engineer
  • Pat Metheny     Arranger, Composer, Guitar, Guitar (Bass), Guitar (Synthesizer), Producer, Synthesizer
  • Steve Rodby     Producer
Лог проверки качества
foobar2000 1.4.3 / Dynamic Range Meter 1.1.1
log date: 2021-09-10 06:38:59
--------------------------------------------------------------------------------
Analyzed: Pat Metheny / Side-Eye NYC (V1.IV)
--------------------------------------------------------------------------------
DR         Peak         RMS     Duration Track
--------------------------------------------------------------------------------
DR10      -1.00 dB   -13.31 dB     13:48 01-It Starts When We Disappear
DR10      -1.00 dB   -14.25 dB      5:26 02-Better Days Ahead
DR9       -1.00 dB   -12.90 dB      7:12 03-Timeline
DR9       -1.00 dB   -12.24 dB      5:34 04-Bright Size Life
DR9       -1.00 dB   -12.75 dB      6:17 05-Lodger
DR11      -1.00 dB   -15.53 dB      5:07 06-Sirabhorn
DR11      -1.00 dB   -15.10 dB      7:43 07-Turnaround
DR8       -1.00 dB   -12.20 dB     11:38 08-Zenith Blue
--------------------------------------------------------------------------------
Number of tracks:  8
Official DR value: DR10
Samplerate:        48000 Hz
Channels:          2
Bits per sample:   24
Bitrate:           1817 kbps
Codec:             FLAC
================================================================================
Приватный:
Нет (DHT включён)
Размер:
816.28 Мб (855,927,080 байт) » файлов: 14
Участники:
6 раздают, 0 качают (6 участников всего)
Внешние участники:
14 раздают, 5 качают (19 участников всего) [ Обновить ]
Скорость:
0/c 66.67 Кб/c
18:45
371
Нет комментариев. Ваш будет первым!