Поиск

2021 Shrine Quartet - For The Ones We'll Forget {AMP Music} [24-96]

2021 Shrine Quartet - For The Ones We'll Forget {AMP Music} [24-96]
Стили:
Дата издания диска:
19 марта 2021
Носитель:
WEB
Формат:
PCM
Тип рипа:
tracks
Контейнер:
FLAC (*.flac)
Количество каналов:
2.0
Разрядность/ЧД:
24/96
Битрейт аудио:
lossless
Время звучания:
00:40:58
Наличие сканов:
только обложка

Треклист:

01 - For The Ones We'll Forget (06:02)
02 - Title (05:10)
03 - Wash (04:45)
04 - The World Was Never Meant For Something As Beautiful As You (04:06)
05 - For David (09:25)
06 - Open For Darkness (05:42)
07 - The Mind Is A Haunted Place (05:45)

Лог проверки качества
foobar2000 1.4.2 / Dynamic Range Meter 1.1.1
log date: 2021-07-21 21:27:45
--------------------------------------------------------------------------------
Analyzed: Anna GrГ©ta SigurГ°ardГіttir / For The Ones We'll Forget (1)
          Arvid Jullander / For The Ones We'll Forget (2)
          Hannes Bennich / For The Ones We'll Forget (3)
          Shrine Quartet / For The Ones We'll Forget (4-7)
--------------------------------------------------------------------------------
DR         Peak         RMS     Duration Track
--------------------------------------------------------------------------------
DR12      -0.31 dB   -14.74 dB      5:46 07-The Mind Is A Haunted Place
DR10      -0.30 dB   -13.24 dB      9:26 05-For David
DR12      -0.31 dB   -15.54 dB      6:02 01-For The Ones We'll Forget
DR14      -0.32 dB   -16.64 dB      5:11 02-Title
DR12      -0.30 dB   -14.59 dB      4:46 03-Wash
DR13      -2.55 dB   -20.58 dB      4:07 04-The World Was Never Meant For Something As Beautiful As You
DR12      -0.32 dB   -14.68 dB      5:42 06-Open For Darkness
--------------------------------------------------------------------------------
Number of tracks:  7
Official DR value: DR12
Samplerate:        96000 Hz
Channels:          2
Bits per sample:   24
Bitrate:           2797 kbps
Codec:             FLAC
================================================================================
По всем вопросам пишите личное сообщение пользователю M0p94ok.
19:16
222
Нет комментариев. Ваш будет первым!