Поиск

2016 Sayaka Tsuruta - All The Things You Are {Venus VHGD-193} [DSD64 ISO]

2016 Sayaka Tsuruta - All The Things You Are {Venus VHGD-193} [DSD64 ISO]
Стили:
Дата записи диска:
13 января, 14 января, 15 января 2012
Место записи:
Avatar Studio, New York City, NY, USA
Издатель (лейбл):
Номер по каталогу:
VHGD-193
Носитель:
SACD
Формат:
DSD
Тип рипа:
image
Контейнер:
ISO (*.iso)
Количество каналов:
2.0
Разрядность/ЧД:
64 (2,8 MHz/1 Bit)
Битрейт аудио:
lossless
Время звучания:
00:49:44
Наличие сканов:
да
Треклист:

01. I Didn't Know What Time It Was《 L.Hart - R. Rodgers 》
02. Alone Together《 H. Dietz - A. Schwartz 》
03. It's A Sin To Tell A Lie《 B. Mayhew 》
04. The Shadow Of Your Smile《 P. F. Webster - J. Mandel 》
05. Fly Me To The Moon《 B. Howard 》
06. Moon River《 J. Mercer - H. Mancini 》
07. So In Love《 C. Porter 》
08. Lullaby Of Birdland《 B. Y. Foster - G. Shearing 》
09. Night And Day《 C. Porter 》
10. Bei Mir Bist Du Schon《 S. Cahn - S. Chaplin 》
11. Misty《 J. Burke - E. Garner 》
12. All The Things You Are《 O. HammersteinⅡ- J. Kern 》

Состав:
  • Sayaka Tsuruta — vocal
  • Dan Nimmer — piano
  • David Wong — bass
  • Pete Van Nostrand — drums
Лог проверки качества
foobar2000 1.6.4 / Dynamic Range Meter 1.1.1
log date: 2021-07-21 19:23:07
--------------------------------------------------------------------------------
Analyzed: SAYAKA TSURUTA / All The Things You Are
--------------------------------------------------------------------------------
DR         Peak         RMS     Duration Track
--------------------------------------------------------------------------------
DR7       -4.86 dB   -13.88 dB      4:08 01-I Didn't Know What Time Is Was
DR6       -4.99 dB   -12.19 dB      3:58 02-Alone Together
DR6       -4.86 dB   -12.71 dB      2:48 03-It's A Sin To Tell A Lie
DR7       -4.84 dB   -13.32 dB      4:56 04-The Shadow Of Your Smile
DR7       -4.61 dB   -14.19 dB      3:51 05-Fly Me To The Moon
DR6       -4.92 dB   -12.83 dB      3:49 06-Moon River
DR7       -4.94 dB   -13.82 dB      4:33 07-So In Love
DR6       -4.81 dB   -12.28 dB      4:07 08-Lullaby Of Birdland
DR6       -4.53 dB   -12.27 dB      3:44 09-Night And Day
DR6       -4.99 dB   -13.20 dB      4:08 10-Bei Mir Bist Du Schön
DR6       -5.06 dB   -12.48 dB      5:05 11-Misty
DR5       -4.77 dB   -12.09 dB      4:36 12-All The Things You Are
--------------------------------------------------------------------------------
Number of tracks:  12
Official DR value: DR6
Samplerate:        2822400 Hz / PCM Samplerate: 88200 Hz
Channels:          2
Bits per sample:   1
Bitrate:           5645 kbps
Codec:             DSD64
================================================================================
По всем вопросам пишите личное сообщение пользователю M0p94ok.
17:04
241
Нет комментариев. Ваш будет первым!