Поиск

2021 Romero Lubambo & Rafael Piccolotto - Live at Dizzy's {Sunnyside} [24-44.1]

2021 Romero Lubambo & Rafael Piccolotto - Live at Dizzy's {Sunnyside} [24-44.1]
Дата издания диска:
5 ноября 2021
Издатель (лейбл):
Носитель:
WEB
Формат:
PCM
Тип рипа:
tracks
Контейнер:
FLAC (*.flac)
Количество каналов:
2.0
Разрядность/ЧД:
24/44,1
Битрейт аудио:
lossless
Время звучания:
00:58:54
Наличие сканов:
только обложка

Треклист:

01 - Lukinha 05:57
02 - Bachião 07:04
03 - Pro Romero 07:03
04 - By The Stream 06:10
05 - Frevo Camarada 03:57
06 - Samba de Proveta 09:06
07 - Route 66 05:41
08 - Paquito in Bremen 04:46
09 - Prêt-à-Porter de Tafetá 06:15
10 - Pro Flavio 02:55

Состав:
  • Rafael Piccolotto de Lima — arranger & conductor
  • Romero Lubambo — acoustic & electric guitars
  • Vitor Gonçalves — accordion
  • Helio Alvés — piano
  • Itaiguara Brandão — drums
  • Hadar Noiberg — flute & piccolo
  • Alejandro Aviles — alto sax, flute & alto flute
  • Livio Almeida — tenor sax & clarinet
  • Stuart Mack — trumpet & flugelhorn
  • Patti Kilroy — violin 1
  • Delaney Stockli — violin 2
  • Amanda Díaz — viola
  • Eric Allen — cello
  • Pamela Driggs — vocals
Лог проверки качества
foobar2000 1.4.3 / Dynamic Range Meter 1.1.1
log date: 2021-11-05 04:40:11
--------------------------------------------------------------------------------
Analyzed: Romero Lubambo / Live at Dizzy's
--------------------------------------------------------------------------------
DR         Peak         RMS     Duration Track
--------------------------------------------------------------------------------
DR10      -0.20 dB   -13.29 dB      5:58 01-Lukinha (Live)
DR9       -0.20 dB   -12.71 dB      7:05 02-Bachião (Live)
DR9       -0.20 dB   -11.28 dB      7:03 03-Pro Romero (Live)
DR9       -0.22 dB   -13.23 dB      6:11 04-By The Stream (Live)
DR10      -0.29 dB   -12.78 dB      3:57 05-Frevo Camarada (Live)
DR9       -0.20 dB   -12.67 dB      9:06 06-Samba de Proveta (Live)
DR8       -0.20 dB   -10.30 dB      5:41 07-Route 66 (Live)
DR11      -0.29 dB   -16.24 dB      4:47 08-Paquito in Bremen (Live)
DR10      -0.20 dB   -12.04 dB      6:16 09-Prêt-à-Porter de Tafetá (Live)
DR8       -0.22 dB   -11.70 dB      2:56 10-Pro Flavio (Live)
--------------------------------------------------------------------------------
Number of tracks:  10
Official DR value: DR9
Samplerate:        44100 Hz
Channels:          2
Bits per sample:   24
Bitrate:           1518 kbps
Codec:             FLAC
================================================================================
По всем вопросам пишите личное сообщение пользователю M0p94ok.
09:59
125
Нет комментариев. Ваш будет первым!