Поиск

2021 Jorge Rossy, Robert Landfermann, Jeff Ballard - Puerta {ECM} [24-96]

2021 Jorge Rossy, Robert Landfermann, Jeff Ballard - Puerta {ECM} [24-96]
Дата издания диска:
5 ноября 2021
Издатель (лейбл):
Носитель:
WEB
Формат:
PCM
Тип рипа:
tracks
Контейнер:
FLAC (*.flac)
Количество каналов:
2.0
Разрядность/ЧД:
24/96
Битрейт аудио:
lossless
Время звучания:
00:54:11
Наличие сканов:
только обложка

01. Post-Catholic Waltz (06:15)
02. Taínos (06:07)
03. Adagio (04:47)
04. Maybe Tuesday (08:01)
05. Cargols (04:34)
06. Scilla E Cariddi (05:43)
07. Puerta (03:54)
08. S.T. (05:54)
09. Ventana (04:21)
10. Adiós (04:35)

Состав:
  • Jorge Rossy: vibraphone, marimba;
  • Robert Landfermann: bass;
  • Jeff Ballard: drums, percussion
Лог проверки качества
foobar2000 1.6.8 beta 6 / Dynamic Range Meter 1.1.1
log date: 2021-11-04 19:06:49
--------------------------------------------------------------------------------
Analyzed: Jorge Rossy, Jeff Ballard & Robert Landfermann / Puerta (1-2)
          Jorge Rossy, Robert Landfermann & Jeff Ballard / Puerta (3-10)
--------------------------------------------------------------------------------
DR         Peak         RMS     Duration Track
--------------------------------------------------------------------------------
DR14      -2.41 dB   -23.22 dB      6:16 01-Post-Catholic Waltz
DR15      -5.00 dB   -21.82 dB      4:21 09-Ventana
DR17      -5.37 dB   -28.93 dB      6:07 02-Taínos
DR14      -5.66 dB   -24.18 dB      4:47 03-Adagio
DR15      -2.66 dB   -22.86 dB      8:01 04-Maybe Tuesday
DR14      -7.97 dB   -27.03 dB      4:35 05-Cargols
DR13      -6.65 dB   -23.89 dB      5:44 06-Scilla e Cariddi
DR12      -8.84 dB   -27.02 dB      3:55 07-Puerta
DR15      -2.17 dB   -21.75 dB      5:55 08-S.T.
DR14      -5.32 dB   -24.29 dB      4:35 10-Adiós
--------------------------------------------------------------------------------
Number of tracks:  10
Official DR value: DR14
Samplerate:        96000 Hz
Channels:          2
Bits per sample:   24
Bitrate:           2487 kbps
Codec:             FLAC
================================================================================
Скачивание доступно после регистрации!!
Приватный:
Нет (DHT включён)
Размер:
1.04 Гб (1,113,193,868 байт) » файлов: 12
Участники:
0 раздают, 0 качают (0 участников всего)
Внешние участники:
10 раздают, 3 качают (13 участников всего) [ Обновить ]
14:22
427
Нет комментариев. Ваш будет первым!