Поиск

2021 Raffaele Attanasio - Nuovo Futuro {Axis} [24-44.1]

2021 Raffaele Attanasio - Nuovo Futuro {Axis} [24-44.1]
Дата издания диска:
11 июня 2021
Носитель:
WEB
Формат:
PCM
Тип рипа:
tracks
Контейнер:
FLAC (*.flac)
Количество каналов:
2.0
Разрядность/ЧД:
24/44,1
Битрейт аудио:
lossless
Наличие сканов:
только обложка

01. Parlesia (08:19)
02. Equilibrio Dinamico (03:57)
03. Indagini Sospette (06:56)
04. La città gioca d’azzardo (05:20)
05. Equilibrio Dinamico (Midnight’s Mix) (06:31)
06. Parlesia (Alternate Version) (03:32)
07. La città gioca d’azzardo (Alternate Version) (07:45)
08. Equilibrio Dinamico (Alternate Version) (05:40)
09. Invito a cena (Bonus Track) (03:49)

Состав:
  • Bass – Mario Uryo Urciuoli
  • Drums – Francesco Varchetta
  • Piano, Keyboards – Raffaele Attanasio
  • Mixing Engineer: Steve Kovacs
  • Producer: Jeff Mills
Лог проверки качества
foobar2000 1.6.8 / Dynamic Range Meter 1.1.1
log date: 2022-02-24 18:33:54
--------------------------------------------------------------------------------
Analyzed: Raffaele Attanasio / Nuovo Futuro
--------------------------------------------------------------------------------
DR         Peak         RMS     Duration Track
--------------------------------------------------------------------------------
DR6       -0.40 dB    -7.57 dB      8:19 01-Parlesia
DR8       -0.21 dB    -9.94 dB      3:58 02-Equilibrio Dinamico
DR6       -0.20 dB    -7.34 dB      6:56 03-Indagini Sospette
DR8       -0.20 dB    -9.80 dB      5:20 04-La città gioca d’azzardo
DR5       -0.20 dB    -6.14 dB      6:32 05-Equilibrio Dinamico (Midnight's Mix)
DR7       -0.41 dB    -8.90 dB      3:33 06-Parlesia (Alternate Version)
DR8       -0.20 dB    -9.54 dB      7:46 07-La città gioca d’azzardo (Alternate Version)
DR8       -0.20 dB    -9.48 dB      5:40 08-Equilibrio Dinamico (Alternate Version)
DR8       -0.20 dB    -9.56 dB      3:49 09-Invito a cena (Bonus Track)
--------------------------------------------------------------------------------
Number of tracks:  9
Official DR value: DR7
Samplerate:        44100 Hz
Channels:          2
Bits per sample:   24
Bitrate:           950 kbps
Codec:             FLAC
================================================================================
Приватный:
Нет (DHT включён)
Размер:
352.78 Мб (369,916,469 байт) » файлов: 11
Участники:
0 раздают, 0 качают (0 участников всего)
Внешние участники:
3 раздают, 1 качают (4 участников всего) [ Обновить ]
13:49
350
Нет комментариев. Ваш будет первым!