Поиск

2020 Julio Resende - Fado Jazz {ACT Music} [24-44.1]

2020 Julio Resende - Fado Jazz {ACT Music} [24-44.1]
Стили:
Дата записи диска:
июль 2020
Место записи:
Atlantico Blue Studios
Дата издания диска:
25 февраля 2020
Издатель (лейбл):
Носитель:
WEB
Формат:
PCM
Тип рипа:
tracks
Контейнер:
FLAC (*.flac)
Количество каналов:
2.0
Разрядность/ЧД:
24/44,1
Битрейт аудио:
lossless
Наличие сканов:
только обложка

1. Vira Mais Cinco (Para o Zeca)  03:21
2. Lira   05:49
3. Fado das 7 Cotovias  05:25
4. Este Piano Não Te Esquece  04:26
5. Fado Blues (For Deolinda)  05:41
6. All the Things - Alfama - Are  03:37
7. Tiro no Escuro  04:10
8. Fado Maior Improvisado  02:28
9. Profecia  03:34

Состав:
  • Júlio Resende, piano
  • Bruno Chaveiro, Portuguese guitar
  • André Rosinha, double bass
  • Alexandre Frazão, drums
  • Lina, vocals (on Profecia)
  • Recorded by André Tavares
Лог проверки качества
foobar2000 1.4.3 / Dynamic Range Meter 1.1.1
log date: 2022-02-24 00:45:38
--------------------------------------------------------------------------------
Analyzed: Júlio Resende / Fado Jazz
--------------------------------------------------------------------------------
DR         Peak         RMS     Duration Track
--------------------------------------------------------------------------------
DR8       -0.32 dB    -9.74 dB      3:22 01-Vira Mais Cinco (Para o Zeca)
DR12      -0.32 dB   -16.47 dB      5:49 02-Lira
DR8       -0.32 dB   -10.03 dB      5:26 03-Fado das 7 Cotovias
DR11      -0.32 dB   -14.58 dB      4:26 04-Este Piano Não Te Esquece
DR10      -0.32 dB   -13.86 dB      5:41 05-Fado Blues (For Deolinda)
DR14      -0.32 dB   -18.06 dB      3:38 06-All the Things - Alfama - Are
DR11      -0.32 dB   -13.91 dB      4:11 07-Tiro no Escuro
DR8       -0.32 dB   -10.16 dB      2:28 08-Fado Maior Improvisado
DR9       -0.32 dB   -11.54 dB      3:35 09-Profecia
--------------------------------------------------------------------------------
Number of tracks:  9
Official DR value: DR10
Samplerate:        44100 Hz
Channels:          2
Bits per sample:   24
Bitrate:           1557 kbps
Codec:             FLAC
================================================================================
01:26
415
Нет комментариев. Ваш будет первым!