Поиск

2021 Platina Jazz - The Stockholm Sessions, Pt. 1 {Platina} [24-48]

2021 Platina Jazz - The Stockholm Sessions, Pt. 1 {Platina} [24-48]
Стили:
Дата издания диска:
6 августа 2021
Носитель:
WEB
Формат:
PCM
Тип рипа:
tracks
Контейнер:
FLAC (*.flac)
Количество каналов:
2.0
Разрядность/ЧД:
24/48
Битрейт аудио:
lossless
Время звучания:
00:53:31
Наличие сканов:
только обложка

Треклист:

01. Hajimete No Chuu (Live) feat. Niklas Gabrielsson  03:46
02. Zen Zen Zense (Live) feat. Josefine Wassler  05:14
03. Sobakasu (Live)  03:24
04. Macross (Live) feat. Thomas Eby  04:07
05. Cha-La Head Cha-La (Live) feat. Niklas Gabrielsson  04:41
06. Ai Oboete Imasuka (Do You Remember Love) (Live) feat. Maia Hirasawa  06:46
07. Yumeiro No Spoon (Live)  03:26
08. Blue Water (Live)  05:35
09. Cosmos Ni Kimito (Live)  03:27
10. For Fruits Basket (Live)  03:53
11. Ready!! (Live)  03:54
12. Tenshi no Yubikiri (Live)  05:14

Лог проверки качества
foobar2000 1.4.2 / Dynamic Range Meter 1.1.1
log date: 2021-08-06 22:12:08
--------------------------------------------------------------------------------
Analyzed: Platina Jazz / The Stockholm Sessions, Pt. 1
--------------------------------------------------------------------------------
DR         Peak         RMS     Duration Track
--------------------------------------------------------------------------------
DR10      -1.00 dB   -12.40 dB      3:47 01-Hajimete No Chuu  [feat. Niklas Gabrielsson] (Live)
DR10      -1.00 dB   -12.97 dB      5:15 02-Zen Zen Zense  [feat. Josefine Wassler] (Live)
DR11      -1.00 dB   -13.27 dB      3:24 03-Sobakasu  (Live)
DR10      -1.00 dB   -11.84 dB      4:08 04-Macross  [feat. Thomas Eby] (Live)
DR10      -1.00 dB   -12.85 dB      4:42 05-Cha-La Head Cha-La  [feat. Niklas Gabrielsson] (Live)
DR13      -0.52 dB   -17.43 dB      6:46 06-Ai Oboete Imasuka (Do You Remember Love)  [feat. Maia Hirasawa] (Live)
DR12      -1.00 dB   -15.54 dB      3:26 07-Yumeiro No Spoon  (Live)
DR13      -1.00 dB   -17.59 dB      5:35 08-Blue Water  (Live)
DR13      -3.06 dB   -19.16 dB      3:28 09-Cosmos Ni Kimito  (Live)
DR13      -1.00 dB   -16.80 dB      3:53 10-For Fruits Basket  (Live)
DR10      -1.00 dB   -13.06 dB      3:55 11-Ready!!  (Live)
DR15      -1.00 dB   -18.49 dB      5:15 12-Tenshi no Yubikiri  (Live)
--------------------------------------------------------------------------------
Number of tracks:  12
Official DR value: DR12
Samplerate:        48000 Hz
Channels:          2
Bits per sample:   24
Bitrate:           1538 kbps
Codec:             FLAC
================================================================================
По всем вопросам пишите личное сообщение пользователю M0p94ok.
13:30
201
Нет комментариев. Ваш будет первым!