Поиск

2021 NOVA - Quarantine Series Vol. 2 {Velvet Mind Group} [24-48]

2021 NOVA - Quarantine Series Vol. 2 {Velvet Mind Group} [24-48]
Дата издания диска:
10 августа 2021
Носитель:
WEB
Формат:
PCM
Тип рипа:
tracks
Контейнер:
FLAC (*.flac)
Количество каналов:
2.0
Разрядность/ЧД:
24/48
Битрейт аудио:
lossless
Время звучания:
00:43:48
Наличие сканов:
только обложка

01. O Barquinho  03:22
02. Por Causa De Você, Menina  04:27
03. Samba Da Benção  03:43
04. O Morro Não Tem Vez (Favela)  03:38
05. Samba De Orfeu  03:55
06. Tico Tico  02:12
07. You Don't Know What Love Is  05:45
08. Black Orpheus (Manhã de Carnaval)  04:25
09. Samba De Verão (Summer Samba)  03:22
10. Corcovado (Quiet Nights of Quiet Stars)  05:09
11. You're Everything  03:44

Лог проверки качества
foobar2000 1.3.17 / Замер динамического диапазона (DR) 1.1.1
--------------------------------------------------------------------------------
Анализ:   ? / ?
--------------------------------------------------------------------------------

DR         Пики         RMS           Продолжительность трека
--------------------------------------------------------------------------------
DR12       0.00 дБ   -13.32 дБ      3:22 ?-01 NOVA - O Barquinho
DR10       0.00 дБ   -12.99 дБ      4:27 ?-02 NOVA - Por Causa De Você, Menina
DR13       0.00 дБ   -14.96 дБ      3:43 ?-03 NOVA - Samba Da Benção
DR12       0.00 дБ   -13.45 дБ      3:38 ?-04 NOVA - O Morro Não Tem Vez (Favela)
DR11       0.00 дБ   -12.14 дБ      3:55 ?-05 NOVA - Samba de Orfeu
DR9        0.00 дБ   -11.35 дБ      2:13 ?-06 NOVA - Tico Tico
DR10       0.00 дБ   -12.90 дБ      5:46 ?-07 NOVA - You Don't Know What Love Is
DR12       0.00 дБ   -13.84 дБ      4:26 ?-08 NOVA - Black Orpheus (Orfeu Negro)
DR12       0.00 дБ   -14.20 дБ      3:23 ?-09 NOVA - Samba De Verão (Summer Samba)
DR11       0.00 дБ   -12.75 дБ      5:09 ?-10 NOVA - Corcovado (QS2)
DR13       0.00 дБ   -14.95 дБ      3:44 ?-11 NOVA - You're Everything
--------------------------------------------------------------------------------

Количество треков: 11
Реальные значения DR: DR11

Частота:   48000 Гц
Каналов:   2
Разрядность:   24
Битрейт:   1761 кбит/с
Кодек:   FLAC
================================================================================
Приватный:
Нет (DHT включён)
Размер:
528.78 Мб (554,468,593 байт) » файлов: 12
Участники:
18 раздают, 0 качают (18 участников всего)
Внешние участники:
9 раздают, 3 качают (12 участников всего) [ Обновить ]
21:15
638
Нет комментариев. Ваш будет первым!