Поиск

1965 Charlie Ventura - Someone To Watch Over Me (2019) {Legacy} [24-44.1]

1965 Charlie Ventura - Someone To Watch Over Me (2019) {Legacy} [24-44.1]
Дата издания диска:
26 ноября 1965
Носитель:
WEB
Формат:
PCM
Тип рипа:
tracks
Контейнер:
FLAC (*.flac)
Количество каналов:
2.0
Разрядность/ЧД:
24/44,1
Битрейт аудио:
lossless
Время звучания:
01:45:17
Наличие сканов:
только обложка

01 - Stardust 03:28
02 - Honeysuckle Ros 02:26
03 - Exactly Like You 03:25
04 - Long, Long Summer 05:03
05 - When the Saints Go Marching In 03:17
06 - Nobody Knows the Trouble I've Seen 04:15
07 - Runnin' Wild 02:56
08 - I've Got You Under My Skin 03:09
09 - Chega de Saudade 05:55
10 - Bill Bailey, Won't You Please Come Home 02:29
11 - Dark Eyes 02:55
12 - Sweet Sue, Just You 03:03
13 - I Don't Stand a Ghost of a Chance 03:20
14 - S Wonderful 04:32
15 - Charlie Comes On 03:14
16 - It's Only a Paper Moon 02:57
17 - Jack-Pot 02:49
18 - I Surrender, Dear 02:50
19 - Pau de Arara 03:29
20 - C.V. Jam 03:08
21 - Who's Sorry Now 04:15
22 - Sweet Lorraine 02:30
23 - Good Deal 02:51
24 - Ever so Thoughtful 02:59
25 - Runnin' Wild, No. 2 02:44
26 - The Man I Love 04:06
27 - Stompin' at the Savoy, Pt. 1 02:54
28 - Stompin' at the Savoy, Pt. 2 02:47
29 - Dark Eyes, No. 2 02:10
30 - Out You Go 02:58
31 - C.V. Jump 03:29
32 - Tea for Two 02:54

Лог проверки качества
foobar2000 1.4.3 / Dynamic Range Meter 1.1.1
log date: 2021-06-27 17:42:36

--------------------------------------------------------------------------------
Analyzed: Charlie Ventura / Someone to Watch over Me
--------------------------------------------------------------------------------

DR         Peak         RMS     Duration Track
--------------------------------------------------------------------------------
DR12      -1.24 dB   -16.48 dB      3:28 01-Stardust
DR11      -1.24 dB   -14.31 dB      2:26 02-Honeysuckle Ros
DR11      -1.24 dB   -14.19 dB      3:25 03-Exactly Like You
DR10      -1.24 dB   -12.89 dB      5:03 04-Long, Long Summer
DR10      -1.24 dB   -12.69 dB      3:17 05-When the Saints Go Marching In
DR7       -1.24 dB   -10.12 dB      4:15 06-Nobody Knows the Trouble I've Seen
DR11      -1.24 dB   -13.38 dB      2:57 07-Runnin' Wild
DR10      -1.24 dB   -12.85 dB      3:09 08-I've Got You Under My Skin
DR10      -1.24 dB   -13.49 dB      5:55 09-Chega de Saudade
DR9       -1.24 dB   -11.95 dB      2:30 10-Bill Bailey, Won't You Please Come Home
DR9       -1.24 dB   -12.35 dB      2:56 11-Dark Eyes
DR9       -1.24 dB   -13.40 dB      3:04 12-Sweet Sue, Just You
DR9       -1.24 dB   -14.31 dB      3:21 13-I Don't Stand a Ghost of a Chance
DR8       -1.24 dB   -10.86 dB      4:32 14-S Wonderful
DR9       -1.24 dB   -12.37 dB      3:15 15-Charlie Comes On
DR12      -1.24 dB   -14.32 dB      2:57 16-It's Only a Paper Moon
DR9       -1.24 dB   -12.56 dB      2:50 17-Jack-Pot
DR9       -1.24 dB   -12.17 dB      2:51 18-I Surrender, Dear
DR9       -1.24 dB   -12.40 dB      3:30 19-Pau de Arara
DR8       -1.24 dB   -10.76 dB      3:09 20-C.V. Jam
DR8       -1.24 dB   -10.88 dB      4:15 21-Who's Sorry Now
DR10      -1.24 dB   -12.78 dB      2:31 22-Sweet Lorraine
DR9       -1.24 dB   -12.69 dB      2:52 23-Good Deal
DR11      -1.24 dB   -14.44 dB      2:59 24-Ever so Thoughtful
DR10      -1.24 dB   -12.74 dB      2:45 25-Runnin' Wild, No. 2
DR10      -1.24 dB   -14.16 dB      4:06 26-The Man I Love
DR7       -1.24 dB   -10.53 dB      2:55 27-Stompin' at the Savoy, Pt. 1
DR7       -1.24 dB    -9.67 dB      2:48 28-Stompin' at the Savoy, Pt. 2
DR10      -1.24 dB   -13.34 dB      2:11 29-Dark Eyes, No. 2
DR9       -1.24 dB   -13.91 dB      2:58 30-Out You Go
DR10      -1.24 dB   -12.92 dB      3:30 31-C.V. Jump
DR9       -1.24 dB   -12.01 dB      2:55 32-Tea for Two
--------------------------------------------------------------------------------

Number of tracks:  32
Official DR value: DR10

Samplerate:        44100 Hz
Channels:          2
Bits per sample:   24
Bitrate:           1451 kbps
Codec:             FLAC
================================================================================
Приватный:
Нет (DHT включён)
Размер:
1.09 Гб (1,174,571,089 байт) » файлов: 37
Участники:
0 раздают, 1 качают (1 участников всего)
Внешние участники:
2 раздают, 1 качают (3 участников всего) [ Обновить ]
01:28
487
Нет комментариев. Ваш будет первым!