Поиск

2021 Mathias Eick - When We Leave {ECM} [24-96]

2021 Mathias Eick - When We Leave {ECM} [24-96]
Стили:
Дата издания диска:
24 сентября 2021
Издатель (лейбл):
Носитель:
WEB
Формат:
PCM
Тип рипа:
tracks
Контейнер:
FLAC (*.flac)
Количество каналов:
2.0
Разрядность/ЧД:
24/96
Битрейт аудио:
lossless
Время звучания:
00:37:45
Наличие сканов:
буклет pdf

Треклист:

1. Loving (5:21)
2. Caring (6:10)
3. Turning (5:31)
4. Flying (5:07)
5. Arvo (5:30)
6. Playing (5:20)
7. Begging (4:47)

Состав:
  • Mathias Eick, trumpet, keyboard, vocals
  • Hakon Aase, violin, percussion
  • Andreas Ulvo, piano
  • Audun Erlien, bass
  • Torstein Lofthus, drums
  • Helge Andreas Norbakken, drums, percussion
  • Stian Carstensen, pedal steel guitar
Лог проверки качества
foobar2000 1.4.8 / Dynamic Range Meter 1.1.1
log date: 2021-09-25 11:39:00
--------------------------------------------------------------------------------
Analyzed: Mathias Eick / When We Leave
--------------------------------------------------------------------------------
DR         Peak         RMS     Duration Track
--------------------------------------------------------------------------------
DR11      -2.03 dB   -17.75 dB      5:21 01-Loving
DR11      -2.03 dB   -16.83 dB      6:10 02-Caring
DR11      -2.03 dB   -17.04 dB      5:31 03-Turning
DR14      -7.04 dB   -26.71 dB      5:07 04-Flying
DR9       -3.59 dB   -17.43 dB      5:30 05-Arvo
DR12      -2.03 dB   -17.13 dB      5:20 06-Playing
DR13      -2.57 dB   -19.85 dB      4:47 07-Begging
--------------------------------------------------------------------------------
Number of tracks:  7
Official DR value: DR12
Samplerate:        96000 Hz
Channels:          2
Bits per sample:   24
Bitrate:           2803 kbps
Codec:             FLAC
================================================================================
По всем вопросам пишите личное сообщение пользователю M0p94ok.
16:15
160
Нет комментариев. Ваш будет первым!