Поиск

2021 Arthur Hnatek Trio - Static {Whirlwind} [24-44.1]

2021 Arthur Hnatek Trio - Static {Whirlwind} [24-44.1]
Место записи:
Suburban Sound Recording Studio, Winterthur
Издатель (лейбл):
Номер по каталогу:
WR4770
Носитель:
WEB
Формат:
PCM
Тип рипа:
tracks
Контейнер:
FLAC (*.flac)
Количество каналов:
2.0
Разрядность/ЧД:
24/44,1
Битрейт аудио:
lossless
Время звучания:
00:48:55
Наличие сканов:
только обложка

1. Monotonous  07:53
2. 27  05:26
3. Brew  08:21
4. MIDI sans frontières  04:51
5. Nine B  07:45
6. In Three  04:40
7. Static  06:00
8. Cinque  03:08
9. The End  00:47

Состав:
  •     Bass – Fabien Iannone
  •     Drums, Producer – Arthur Hnatek
  •     Executive Producer – Michael Janisch (2)
  •     Mastered By – Matt Colton
  •     Recorded By, Mixed By – Valentin Liechti
  •     Tenor Saxophone – Francesco Geminiani (2)
Лог проверки качества
foobar2000 1.6.2 / Dynamic Range Meter 1.1.1
log date: 2021-09-25 21:50:52
--------------------------------------------------------------------------------
Analyzed: Arthur Hnatek Trio / Static
--------------------------------------------------------------------------------
DR         Peak         RMS     Duration Track
--------------------------------------------------------------------------------
DR7       -0.30 dB    -9.90 dB      7:53 01-Monotonous
DR8       -0.30 dB   -10.38 dB      5:27 02-27
DR8       -0.30 dB   -10.58 dB      8:22 03-Brew
DR9       -0.30 dB   -13.17 dB      4:51 04-MIDI Sans Frontières
DR7       -0.30 dB    -9.60 dB      7:45 05-Nine B
DR8       -0.30 dB   -10.46 dB      4:40 06-In Three
DR6       -0.30 dB    -9.70 dB      6:01 07-Static
DR7       -0.30 dB    -9.13 dB      3:08 08-Cinque
DR12      -0.30 dB   -15.64 dB      0:48 09-The End
--------------------------------------------------------------------------------
Number of tracks:  9
Official DR value: DR8
Samplerate:        44100 Hz
Channels:          2
Bits per sample:   24
Bitrate:           1192 kbps
Codec:             FLAC
================================================================================
Приватный:
Нет (DHT включён)
Размер:
502.22 Мб (526,618,038 байт) » файлов: 13
Участники:
0 раздают, 0 качают (0 участников всего)
Внешние участники:
--- [ Обновить ]
20:44
427
Нет комментариев. Ваш будет первым!