Поиск

2021 Martin Tingvall - When Light Returns {Skip} [24-96]

2021 Martin Tingvall - When Light Returns {Skip} [24-96]
Дата издания диска:
30 июля 2021
Номер по каталогу:
SKP 9187-2
Носитель:
WEB
Формат:
PCM
Тип рипа:
tracks
Контейнер:
FLAC (*.flac)
Количество каналов:
2.0
Разрядность/ЧД:
24/96
Битрейт аудио:
lossless
Время звучания:
00:46:05
Наличие сканов:
только обложка

Треклист:

01. When Light Returns  04:28
02. Hide and Seek  03:50
03. Little Star  02:53
04. Spring  03:26
05. At the Lighthouse  03:08
06. Yellow Fields  02:56
07. Menuett  03:04
08. Clear Sky  02:44
09. Dancing Trees  05:20
10. Fireflies  02:28
11. Country Road  04:38
12. Old Friend  02:26
13. Flying Carpets  04:38

Состав:
  • Martin Tingvall, piano
Доп. инфо:

Мартин Тингвалл выпустит свой четвертый сольный альбом "When Light Returns".

Музыкант, который в равной степени перемещается между такими категориями, как озвучивание фильмов, классика, джаз или поп, на этом альбоме Мартин Тингвалл играет, казалось бы, простые по звучанию, захватывающе красивые мелодии, которые иногда вызывают ассоциации с классическими фигурами, а иногда отражают его происхождение из скандинавского фолка музыку, а в следующий момент приблизиться к настоящей импровизационной свободе, которую мы называем джазом. Он уже давно отказался от банальной «обувной коробки» жанров, чтобы создать свой собственный мир звука, состоящий из разных источников вдохновения.

Год назад мир вдруг словно остановился — как будто человечество затаило дыхание при первоначальном шоке пандемии. В то же время эта весна в северной Европе была необычайно красивой: солнце светило неделями, почки растений и насекомые появились раньше, чем обычно после долгой скандинавской зимы.

Мартин Тингвалл застрял в своем доме на юге Швеции в это особенное время, и именно здесь, в течение нескольких дней, он сочинил этот новый альбом. «Я много бывал на природе. Во время этого человеческого застоя сила природы казалась мне все сильнее - как знак, который хотел показать нам, людям, что мы не должны сдаваться. Композиции были созданы в марте 2020 года за несколько дней. А потом я записал их напрямую. Для меня этот альбом как символ надежды. Даже когда кажется, что всё замерло и ничто не будет продолжаться, даже после самой темной зимы, свет возвращается весной».

47-летний швед Мартин Тингвалл принадлежит к молодому поколению очень разносторонних и творческих пианистов, которые стирают границы между джазом, поп-музыкой, неоклассической музыкой и музыкой для фильмов, таких как Нильс Фрам, Олафур Арнальдс, Франческо Тристано и Свен Хельбиг. . Но вполне уместны и сравнения с мастером джазового фортепиано Китом Джарреттом.

Лог проверки качества
foobar2000 1.4.2 / Dynamic Range Meter 1.1.1
log date: 2021-07-27 21:20:05
--------------------------------------------------------------------------------
Analyzed: Martin Tingvall / When Light Returns
--------------------------------------------------------------------------------
DR         Peak         RMS     Duration Track
--------------------------------------------------------------------------------
DR11      -1.45 dB   -16.45 dB      4:28 01-When Light Returns
DR12      -0.67 dB   -16.68 dB      3:51 02-Hide and Seek
DR9       -0.29 dB   -13.54 dB      2:54 03-Little Star
DR12      -1.43 dB   -19.41 dB      3:26 04-Spring
DR11      -0.29 dB   -14.29 dB      3:09 05-At the Lighthouse
DR11      -1.66 dB   -17.50 dB      2:57 06-Yellow Fields
DR11      -0.99 dB   -15.34 dB      3:04 07-Menuett
DR12      -1.86 dB   -19.20 dB      2:45 08-Clear Sky
DR12      -2.06 dB   -18.31 dB      5:20 09-Dancing Trees
DR10      -0.29 dB   -12.30 dB      2:28 10-Fireflies
DR12      -0.88 dB   -17.69 dB      4:38 11-Country Road
DR11      -1.36 dB   -17.31 dB      2:27 12-Old Friend
DR11      -1.96 dB   -18.50 dB      4:39 13-Flying Carpets
--------------------------------------------------------------------------------
Number of tracks:  13
Official DR value: DR11
Samplerate:        96000 Hz
Channels:          2
Bits per sample:   24
Bitrate:           2180 kbps
Codec:             FLAC
================================================================================
По всем вопросам пишите личное сообщение пользователю M0p94ok.
11:21
246
Нет комментариев. Ваш будет первым!