Поиск

2019 Ståle Storløkken - The Haze of Sleeplessness {Hubro} [24-44.1]

2019 Ståle Storløkken - The Haze of Sleeplessness {Hubro} [24-44.1]
Место записи:
The Cottage Studio, Trondheim, Norway
Дата издания диска:
29 марта 2019
Издатель (лейбл):
Номер по каталогу:
HUBRO2616
Носитель:
WEB
Формат:
PCM
Тип рипа:
tracks
Контейнер:
FLAC (*.flac)
Количество каналов:
2.0
Разрядность/ЧД:
24/44,1
Битрейт аудио:
lossless
Время звучания:
00:32:10
Наличие сканов:
только обложка

Треклист:

01 - Prelude to the Haze of Sleeplessness (04:39)
02 - Orange Drops (04:32)
03 - Reality Box (01:54)
04 - Stranded at Red Ice Desert. Remember Your Loved Ones (04:04)
05 - Turbulence (01:16)
06 - Skyrocket Hotel (07:23)
07 - Nitro Valley (08:21)

Состав:
  • Executive-Producer – Andreas Risanger Meland*, Helge Sten
  • Mastered By – Helge Sten
  • Producer [Produced By] – Ståle Storløkken
  • Recorded By, Mixed By – Ståle Storløkken
  • Synthesizer [Synthesizers], Mellotron, Electric Organ [Hammond Organ], Electric Piano [Fender Rhodes], Electric Organ [Eminent310 Organ], Cymbal, Gamelan [Saron], Vocals [Vocal] – Ståle Storløkken
Лог проверки качества
foobar2000 1.4.2 / Dynamic Range Meter 1.1.1
log date: 2021-07-27 21:03:32
--------------------------------------------------------------------------------
Analyzed: StГҐle StorlГёkken / The Haze of Sleeplessness
--------------------------------------------------------------------------------
DR         Peak         RMS     Duration Track
--------------------------------------------------------------------------------
DR9       -0.30 dB   -12.26 dB      4:39 01-Prelude to the Haze of Sleeplessness
DR10      -1.01 dB   -16.04 dB      4:32 02-Orange Drops
DR16      -1.33 dB   -20.34 dB      1:54 03-Reality Box
DR9       -0.30 dB   -10.89 dB      4:04 04-Stranded at Red Ice Desert. Remember Your Loved Ones
DR12      -0.30 dB   -13.50 dB      1:16 05-Turbulence
DR8       -0.29 dB   -10.23 dB      7:24 06-Skyrocket Hotel
DR12      -0.16 dB   -16.43 dB      8:21 07-Nitro Valley
--------------------------------------------------------------------------------
Number of tracks:  7
Official DR value: DR11
Samplerate:        44100 Hz
Channels:          2
Bits per sample:   24
Bitrate:           1387 kbps
Codec:             FLAC
================================================================================
По всем вопросам пишите личное сообщение пользователю M0p94ok.
23:25
223
Нет комментариев. Ваш будет первым!