Поиск

2021 Martin Leiton - Desde a Bajo {UnderPool} [24-44.1]

2021 Martin Leiton - Desde a Bajo {UnderPool} [24-44.1]
Стили:
Дата издания диска:
11 июня 2021
Носитель:
WEB
Формат:
PCM
Тип рипа:
tracks
Контейнер:
FLAC (*.flac)
Количество каналов:
2.0
Разрядность/ЧД:
24/44,1
Битрейт аудио:
lossless
Время звучания:
00:44:59
Наличие сканов:
только обложка

Треклист:

01 - Rains Each Day (00:08:27)
02 - Gran Karma (00:07:41)
03 - Maletas (00:06:44)
04 - Ollie's (00:05:24)
05 - Primavera (00:04:46)
06 - All the Licks (00:06:37)
07 - But Beatiful (00:05:19)

Состав:
  • Martín Leiton
  • Jorge Rossy
  • Santi de la Rubia
  • Toni Saigi
Лог проверки качества
foobar2000 1.4.2 / Dynamic Range Meter 1.1.1
log date: 2021-06-27 12:32:43

--------------------------------------------------------------------------------
Analyzed: Martin Leiton / Desde a Bajo
--------------------------------------------------------------------------------

DR         Peak         RMS     Duration Track
--------------------------------------------------------------------------------
DR10      -0.51 dB   -12.75 dB      8:27 01-Rains Each Day
DR10      -0.51 dB   -13.14 dB      7:41 02-Gran Karma
DR10      -0.51 dB   -12.68 dB      6:44 03-Maletas
DR10      -0.51 dB   -12.52 dB      5:24 04-Ollie's
DR10      -0.51 dB   -12.65 dB      4:47 05-Primavera
DR10      -0.51 dB   -12.74 dB      6:37 06-All the Licks
DR11      -0.51 dB   -14.99 dB      5:19 07-But Beatiful
--------------------------------------------------------------------------------

Number of tracks:  7
Official DR value: DR10

Samplerate:        44100 Hz
Channels:          2
Bits per sample:   24
Bitrate:           1449 kbps
Codec:             FLAC
================================================================================
По всем вопросам пишите личное сообщение пользователю M0p94ok.
21:29
251
Нет комментариев. Ваш будет первым!