Поиск

1971 Gene Russell - New Direction (2021) {Black Jazz} [24-96]

1971 Gene Russell - New Direction (2021) {Black Jazz} [24-96]
Дата издания диска:
13 июня 1971
Номер по каталогу:
BJ/1
Носитель:
WEB
Формат:
PCM
Тип рипа:
tracks
Контейнер:
FLAC (*.flac)
Количество каналов:
2.0
Разрядность/ЧД:
24/96
Битрейт аудио:
lossless
Время звучания:
00:32:26
Релизёр (источник):
prostudiomasters.com

Треклист:

1. Black Orchid  03:14
2. Hitting the Jug  04:34
3. Willow Weep for Me  04:56
4. Listen Here  03:12
5. On Green Dolphin Street  04:59
6. Silver's Serenade  04:52
7. My Cherie Amour  03:12
8. Making Bread  03:20

Состав:
  • Gordon Anderson    Reissue Producer
  • Gene Russell    Arranger, Engineer, Producer
  • Pat Thomas    Liner Notes
Лог проверки качества
foobar2000 1.6.2 / Dynamic Range Meter 1.1.1
log date: 2021-11-10 23:57:45

--------------------------------------------------------------------------------
Analyzed: Gene Russell / New Direction
--------------------------------------------------------------------------------

DR         Peak         RMS     Duration Track
--------------------------------------------------------------------------------
DR11      -1.17 dB   -13.93 dB      3:14 01-Black Orchid
DR10      -1.17 dB   -13.97 dB      4:35 02-Hitting the Jug
DR13      -1.17 dB   -18.41 dB      4:57 03-Willow Weep for Me
DR11      -1.17 dB   -13.90 dB      3:12 04-Listen Here
DR11      -1.17 dB   -14.88 dB      5:00 05-On Green Dolphin Street
DR12      -1.17 dB   -14.50 dB      4:52 06-Silver's Serenade
DR11      -1.17 dB   -14.70 dB      3:13 07-My Cherie Amour
DR11      -1.17 dB   -13.16 dB      3:21 08-Making Bread
--------------------------------------------------------------------------------

Number of tracks:  8
Official DR value: DR11

Samplerate:        96000 Hz
Channels:          2
Bits per sample:   24
Bitrate:           2735 kbps
Codec:             FLAC
===============================================================================
Download available for power users only.
To become a power user - read FAQ.
01:13
342
Нет комментариев. Ваш будет первым!