Поиск

2021 Lurlean Hunter - My Romance - Love Songs {Nagel Heyer} [24-44.1]

2021 Lurlean Hunter - My Romance - Love Songs {Nagel Heyer} [24-44.1]
Стили:
Дата издания диска:
8 октября 2021
Издатель (лейбл):
Носитель:
WEB
Формат:
PCM
Тип рипа:
tracks
Контейнер:
FLAC (*.flac)
Количество каналов:
2.0
Разрядность/ЧД:
24/44,1
Битрейт аудио:
lossless
Время звучания:
01:10:32
Наличие сканов:
только обложка

01. That Old Feeling  03:06
02. Like Someone in Love  02:58
03. We'll Be Together Again  04:06
04. Blue and Sentimental  03:44
05. Easy to Love  02:38
06. Georgia on My Mind  03:58
07. You Don't Know What Love Is  03:40
08. My Kinda Love  03:15
09. It's the Talk of the Town  03:51
10. On Green Dolphin Street  04:09
11. Some Other Time  02:48
12. Moondrift  03:00
13. Then I'll Be Tired of You  05:32
14. Blue Turning Grey Over You  03:05
15. It Never Entered My Mind  05:04
16. If You Could See Me Now  02:47
17. Night Life  03:24
18. This Time the Dream's on Me  02:28
19. Crazy He Calls Me  03:26
20. Just Imagine  03:33

Состав:
  • Lurlean Hunter — vocals

with

  • Joe Newman — trumpet
  • Harry "Sweets" Edison — trumpet
  • Bud Freeman — tenor sax
  • Al Cohn — tenor sax
  • Urbie Green — trombone
  • Herbie Mann — flute
  • Hank Jones — piano
  • Jim Hall — guitar
  • Mit Hinton — bass
  • Osie Johnson — drums
Лог проверки качества
foobar2000 1.4.3 / Dynamic Range Meter 1.1.1
log date: 2021-11-09 19:53:09
--------------------------------------------------------------------------------
Analyzed: Lurlean Hunter / My Romance - Love Songs
--------------------------------------------------------------------------------
DR         Peak         RMS     Duration Track
--------------------------------------------------------------------------------
DR8       -1.00 dB   -11.76 dB      3:06 01-That Old Feeling
DR8       -1.00 dB   -12.50 dB      2:59 02-Like Someone in Love
DR11      -1.00 dB   -14.28 dB      4:07 03-We'll Be Together Again
DR11      -1.00 dB   -13.61 dB      3:45 04-Blue and Sentimental
DR8       -1.00 dB   -11.27 dB      2:38 05-Easy to Love
DR8       -1.00 dB   -11.98 dB      3:59 06-Georgia on My Mind
DR9       -1.00 dB   -12.40 dB      3:40 07-You Don't Know What Love Is
DR11      -1.00 dB   -14.01 dB      3:16 08-My Kinda Love
DR8       -1.00 dB   -12.10 dB      3:51 09-It's the Talk of the Town
DR9       -1.00 dB   -13.98 dB      4:09 10-On Green Dolphin Street
DR10      -1.00 dB   -13.32 dB      2:48 11-Some Other Time
DR8       -1.00 dB   -12.31 dB      3:00 12-Moondrift
DR12      -1.00 dB   -15.77 dB      5:32 13-Then I'll Be Tired of You
DR11      -1.00 dB   -13.49 dB      3:06 14-Blue Turning Grey Over You
DR9       -1.00 dB   -13.65 dB      5:04 15-It Never Entered My Mind
DR10      -1.00 dB   -13.47 dB      2:48 16-If You Could See Me Now
DR8       -1.00 dB   -11.79 dB      3:24 17-Night Life
DR9       -1.00 dB   -11.61 dB      2:28 18-This Time the Dream's on Me
DR11      -1.00 dB   -14.41 dB      3:26 19-Crazy He Calls Me
DR10      -1.00 dB   -12.87 dB      3:33 20-Just Imagine
--------------------------------------------------------------------------------
Number of tracks:  20
Official DR value: DR9
Samplerate:        44100 Hz
Channels:          2
Bits per sample:   24
Bitrate:           1559 kbps
Codec:             FLAC
================================================================================
Скачивание доступно после регистрации!!
Приватный:
Нет (DHT включён)
Размер:
756.47 Мб (793,220,901 байт) » файлов: 25
Участники:
0 раздают, 0 качают (0 участников всего)
Внешние участники:
2 раздают, 1 качают (3 участников всего) [ Обновить ]
18:57
403
Нет комментариев. Ваш будет первым!