Поиск

2021 Lisa Ekdahl - Grand Songs {Sony Masterworks} [24-44.1]

2021 Lisa Ekdahl - Grand Songs {Sony Masterworks} [24-44.1]
Дата издания диска:
8 октября 2021
Издатель (лейбл):
Носитель:
WEB
Формат:
PCM
Тип рипа:
tracks
Контейнер:
FLAC (*.flac)
Количество каналов:
2.0
Разрядность/ЧД:
24/44,1
Битрейт аудио:
lossless
Время звучания:
00:37:10
Наличие сканов:
только обложка

Треклист:

01 - Wish You Were Gay 03:08
02 - You've Lost That Lovin' Feelin' 04:20
03 - If I Were a Boy 03:34
04 - Stop! In the Name of Love 03:49
05 - Most of the Time 03:50
06 - I Should Have Known Better 03:25
07 - Till the Rivers All Run Dry 04:07
08 - Dream a Little Dream of Me 03:06
09 - Take a Giant Step 03:48
10 - You Can Close Your Eyes 04:03

Состав:
  •     Backing Vocals – Andreas Nordell, Desmond Foster, Vanna Rosenberg
  •     Co-producer – Lisa Ekdahl
  •     Drums, Percussion – Ola Winkler
  •     Guitar, Electric Bass, Bongos, Backing Vocals – Mattias Blomdahl
  •     Mastered By – Hoffe Stannow
  •     Piano, Vibraphone – Milton Öhrström
  •     Producer, Arranged By, Recorded By, Mixed By – Mattias Blomdahl
  •     Strings – Erik Arvinder
  •     Tenor Saxophone, Clarinet, Bass Clarinet, Flute – Per 'Texas' Johansson
  •     Vocals – Lisa Ekdahl
Лог проверки качества
foobar2000 1.4.3 / Dynamic Range Meter 1.1.1
log date: 2021-10-09 18:45:00
--------------------------------------------------------------------------------
Analyzed: Lisa Ekdahl / Grand Songs
--------------------------------------------------------------------------------
DR         Peak         RMS     Duration Track
--------------------------------------------------------------------------------
DR11      -0.10 dB   -12.97 dB      3:08 01-Wish You Were Gay
DR11      -0.10 dB   -14.88 dB      4:21 02-You've Lost That Lovin' Feelin'
DR10      -0.10 dB   -12.63 dB      3:34 03-If I Were a Boy
DR10      -0.10 dB   -11.87 dB      3:50 04-Stop! In the Name of Love
DR9       -0.10 dB   -12.41 dB      3:51 05-Most of the Time
DR9       -0.10 dB   -11.53 dB      3:26 06-I Should Have Known Better
DR9       -0.10 dB   -11.55 dB      4:07 07-Till the Rivers All Run Dry
DR10      -0.10 dB   -12.98 dB      3:06 08-Dream a Little Dream of Me
DR10      -0.10 dB   -12.63 dB      3:48 09-Take a Giant Step
DR12      -0.10 dB   -14.95 dB      4:04 10-You Can Close Your Eyes
--------------------------------------------------------------------------------
Number of tracks:  10
Official DR value: DR10
Samplerate:        44100 Hz
Channels:          2
Bits per sample:   24
Bitrate:           1441 kbps
Codec:             FLAC
================================================================================
15:40
407
Нет комментариев. Ваш будет первым!