Поиск

2021 Claudia Zannoni With Strings - Save Your Love For Me {Venus VHGD-367} [DSD64 ISO]

2021 Claudia Zannoni With Strings - Save Your Love For Me {Venus VHGD-367} [DSD64 ISO]
Стили:
Дата записи диска:
18 декабря - 20 декабря 2020
Место записи:
Art Music Studio, Bassano Del Grappa, Italy
Издатель (лейбл):
Номер по каталогу:
VHGD-367
Носитель:
SACD
Формат:
DSD
Тип рипа:
image
Контейнер:
ISO (*.iso)
Количество каналов:
2.0
Разрядность/ЧД:
64 (2,8 MHz/1 Bit)
Битрейт аудио:
lossless
Время звучания:
00:50:29
Наличие сканов:
только обложка
Треклист:

1. I Fall In Love Too Easily《 J. Styne - S. Cahn 》
2. The Old Country《 N. Adderley - C. Lewis 》
3. I’m Gonna Laugh You Right Out Of My Life《 C. Coleman - J. McCarthy 》
4. When Sunny Gets Blue《 M. Fisher - J. Segal 》
5. The Masquerade Is Over《 A. Wruber - H. Magidson 》
6. Save Your Love For Me《 B. Johnson 》
7. Guess Who I Saw Today《 M. Grand - E. Boyd 》
8. First Time On A Ferris Wheel《 H. Schock - M. Segal 》
9. I’ll Be Seeing You《 S. Fain - I. Kahal 》

Состав:
  • Arrigoni’s Strings Orchestra
  • Claudia Zannoni — vocals
  • Massimo Faraò — piano
  • Davide Palladin — guitar
  • Nicola Barbon — bass
  • Roberto Bobo Facchinetti — drums
Лог проверки качества
foobar2000 1.6.7 / Dynamic Range Meter 1.1.1
log date: 2021-10-10 12:30:47
--------------------------------------------------------------------------------
Analyzed: CLAUDIA ZANNONI with STRINGS / Save Your Love For Me
--------------------------------------------------------------------------------
DR         Peak         RMS     Duration Track
--------------------------------------------------------------------------------
DR8       -6.90 dB   -17.97 dB      6:18 01-I Fall In Love Too Easily
DR7       -5.63 dB   -15.13 dB      4:50 02-The Old Country
DR6       -6.58 dB   -16.19 dB      6:30 03-I'm Gonna Laugh You Right Out Of My Life
DR7       -6.45 dB   -17.03 dB      5:49 04-When Sunny Gets Blue
DR8       -5.52 dB   -15.56 dB      6:08 05-The Masquerade Is Over
DR7       -5.75 dB   -16.58 dB      5:28 06-Save Your Love For Me
DR7       -5.87 dB   -15.37 dB      3:36 07-Guess Who I Saw Today
DR7       -6.40 dB   -16.31 dB      5:16 08-First Time On A Ferris Wheel
DR6       -5.81 dB   -15.45 dB      6:35 09-I'll Be Seeing You
--------------------------------------------------------------------------------
Number of tracks:  9
Official DR value: DR7
Samplerate:        2822400 Hz / PCM Samplerate: 88200 Hz
Channels:          2
Bits per sample:   1
Bitrate:           5645 kbps
Codec:             DSD64
================================================================================
По всем вопросам пишите личное сообщение пользователю M0p94ok.
21:47
138
Нет комментариев. Ваш будет первым!