Поиск

2021 Klaus Doldinger - The First 50 Years of Passport {Warner} [24-48]

2021 Klaus Doldinger - The First 50 Years of Passport {Warner} [24-48]
Дата издания диска:
7 мая 2021
Носитель:
WEB
Формат:
PCM
Тип рипа:
tracks
Контейнер:
FLAC (*.flac)
Количество каналов:
2.0
Разрядность/ЧД:
24/48
Битрейт аудио:
lossless
Время звучания:
02:27:55
Наличие сканов:
только обложка

Треклист:

DISC 1
01 - Uranus 06:39
02 - Ataraxia Pt. 1 02:54
03 - Ataraxia Pt. 2 05:23
04 - Loco-Motive 04:16
05 - Missing You 05:01
06 - Dawn 01:53
07 - Light 1 01:52
08 - Light 2 05:08
09 - Bahia do Sol 05:53
10 - Tarantula 04:53
11 - Triolen Groove 05:20
12 - Isar Sunrise 04:29
13 - Seven to Four 07:36
14 - Tatort 03:19
15 - Das Boot 03:43
16 - Die unendliche Geschichte (The Never Ending Story - Suite) 04:31
DISC 2
01 - Abracadabra 07:25
02 - Ovation 03:57
03 - Man in the Mirror 04:26
04 - Morning Sun 05:50
05 - Ju-Ju Man 08:46
06 - New Moon 04:12
07 - Allegory 03:44
08 - Blue Tatoo 04:07
09 - Moon over Bahia 05:27
10 - Shirokko 06:35
11 - Handmade 05:50
12 - Jadoo 03:10
13 - Hexensabbat 02:40
14 - Sahara Sketches 08:56

Состав:
  • Horst Ramthor     Harp
  • Bernd Ruf     Conductor
  • Kathy Bartney     Vocals
  • Johnny Griffin     Saxophone
  • Majid Bekkas     Lute, Vocals
  • Patrick Scales     Bass, Vocals
  • Olaf Kübler     Flute, Saxophone
  • Christian Lettner     Drums, Vocals
  • Brian Auger, Jimmy Jackson     Organ
  • Roberto Di Gioia     Keyboards, Vocals
  • Kevin Mulligan, Peter O'Mara     Guitar, Vocals
  • Rheinland-Pfalz Staatsphilharmonie     Orchestra
  • Hermann Weindorf     Composer, Keyboards, Vocals
  • Biboul Darouiche, Ernst Stroer     Percussion, Vocals
  • Lothar Meid, Dieter Petereit, Wolfgang Schmid, Jochen Schmidt     Bass
  • Klaus Doldinger     Composer, Keyboards, Producer, Programming, Saxophone
  • Mats Björklund, Michael Goltz, Volker Kriegel, Roy Louis, Martin Scales     Guitar
  • Michael Hornek, Frank Roberts, Hendrik Schaper, Kristian Schultze     Keyboards
  • Curt Cress, David Crigger, Wolfgang Haffner,  Willy Ketzer, Udo Lindenberg     Drums
  • Beto Cazes, Jovi Joviniano, Elmer Louis, Guillermo Marchena, Peter York     Percussion
Лог проверки качества
foobar2000 1.4.3 / Dynamic Range Meter 1.1.1
log date: 2021-10-31 07:35:20
--------------------------------------------------------------------------------
Analyzed: Klaus Doldinger / The First 50 Years of Passport (Remastered Edition)
--------------------------------------------------------------------------------
DR         Peak         RMS     Duration Track
--------------------------------------------------------------------------------
DR10      -0.86 dB   -12.45 dB      6:39 01-Uranus (2021 Remastered)
DR9       -1.17 dB   -14.36 dB      2:55 02-Ataraxia Pt. 1 (2021 Remastered)
DR10      -0.54 dB   -13.38 dB      5:24 03-Ataraxia Pt. 2 (2021 Remastered)
DR11      -0.06 dB   -13.04 dB      4:17 04-Loco-Motive (2021 Remastered)
DR10      -0.50 dB   -13.57 dB      5:02 05-Missing You (2021 Remastered)
DR9       -7.61 dB   -19.81 dB      1:53 06-Dawn (2021 Remastered)
DR10      -0.69 dB   -14.10 dB      1:53 07-Light 1 (2021 Remastered)
DR8       -0.28 dB   -11.07 dB      5:08 08-Light 2 (2021 Remastered)
DR12       0.00 dB   -14.54 dB      5:53 09-Bahia do Sol (2021 Remastered)
DR9       -0.12 dB   -12.34 dB      4:53 10-Tarantula (2021 Remastered)
DR11      -0.07 dB   -11.98 dB      5:20 11-Triolen Groove
DR11       0.00 dB   -13.44 dB      4:29 12-Isar Sunrise
DR11       0.00 dB   -12.56 dB      7:36 13-Seven to Four (2021 Remastered)
DR10      -0.21 dB   -11.79 dB      3:19 14-Tatort (2021 Remastered)
DR9       -0.65 dB   -12.54 dB      3:44 15-Das Boot (2021 Remastered)
DR9       -0.28 dB   -13.81 dB      4:31 16-Die unendliche Geschichte (The Never Ending Story - Suite) [2021 Remastered]
--------------------------------------------------------------------------------
Number of tracks:  16
Official DR value: DR10
Samplerate:        48000 Hz
Channels:          2
Bits per sample:   24
Bitrate:           1543 kbps
Codec:             FLAC
================================================================================
foobar2000 1.4.3 / Dynamic Range Meter 1.1.1
log date: 2021-10-31 07:36:10
--------------------------------------------------------------------------------
Analyzed: Klaus Doldinger / The First 50 Years of Passport (Remastered Edition)
--------------------------------------------------------------------------------
DR         Peak         RMS     Duration Track
--------------------------------------------------------------------------------
DR9       -1.31 dB   -11.91 dB      7:25 01-Abracadabra (2021 Remastered)
DR11      -0.83 dB   -12.66 dB      3:57 02-Ovation (2021 Remastered)
DR10      -0.33 dB   -12.12 dB      4:27 03-Man in the Mirror (2021 Remastered)
DR10      -0.36 dB   -12.64 dB      5:51 04-Morning Sun (2021 Remastered)
DR10       0.00 dB   -12.32 dB      8:47 05-Ju-Ju Man (2021 Remastered)
DR10      -0.24 dB   -11.91 dB      4:12 06-New Moon (2021 Remastered)
DR10      -0.33 dB   -12.70 dB      3:45 07-Allegory (2021 Remastered)
DR11      -0.23 dB   -13.48 dB      4:08 08-Blue Tatoo (2021 Remastered)
DR10      -0.41 dB   -12.07 dB      5:27 09-Moon over Bahia (2021 Remastered)
DR9       -0.19 dB   -11.64 dB      6:36 10-Shirokko (2021 Remastered)
DR9       -0.42 dB   -10.95 dB      5:51 11-Handmade (2021 Remastered)
DR9       -1.11 dB   -11.93 dB      3:11 12-Jadoo (2021 Remastered)
DR9       -1.40 dB   -11.35 dB      2:41 13-Hexensabbat (2021 Remastered)
DR10      -0.43 dB   -13.83 dB      8:57 14-Sahara Sketches (2021 Remastered)
--------------------------------------------------------------------------------
Number of tracks:  14
Official DR value: DR10
Samplerate:        48000 Hz
Channels:          2
Bits per sample:   24
Bitrate:           1672 kbps
Codec:             FLAC
================================================================================
Download available for power users only.
To become a power user - read FAQ.
17:45
193
Нет комментариев. Ваш будет первым!