Поиск

2017 Wild Bill Davison - The Danish Sessions 1973-1978 {Storyville} [24-44.1]

2017 Wild Bill Davison - The Danish Sessions 1973-1978 {Storyville} [24-44.1]
Дата издания диска:
21 июля 2017
Издатель (лейбл):
Носитель:
WEB
Формат:
PCM
Тип рипа:
tracks
Контейнер:
FLAC (*.flac)
Количество каналов:
2.0
Разрядность/ЧД:
24/44,1
Битрейт аудио:
lossless
Время звучания:
03:39:04
Наличие сканов:
только обложка

01 - Driftin' Down the River - Arne Bue Jensen 01:56
02 - Christopher Columbus - Arne Bue Jensen 08:04
03 - Baby, Won't You Please Come Home - Arne Bue Jensen 04:18
04 - Runnin' Wild - Arne Bue Jensen 04:36
05 - Save It, Pretty Mama - Arne Bue Jensen 03:12
06 - A Cottage for Sale - Arne Bue Jensen 03:52
07 - China Boy - Arne Bue Jensen 04:26
08 - When It's Sleepy Time Down South - Arne Bue Jensen 03:26
09 - Old Fashioned Love - Arne Bue Jensen 04:35
10 - Blues for Ann - Arne Bue Jensen 04:34
11 - Way Down Yonder in New Orleans - Arne Bue Jensen 02:47
12 - Farfar's Blues - Arne Bue Jensen 03:58
13 - I'm Confessin' - Arne Bue Jensen 03:33
14 - Blues My Naughty Sweetie Gives to Me - Arne Bue Jensen 03:00
15 - I Can't Get Started - Arne Bue Jensen 03:30
16 - Lady Be Good - Arne Bue Jensen 04:18
17 - All That Meat and No Potatoes - Arne Bue Jensen 02:54
18 - I'm Gonna Sit Right Down and Write Myself a Letter - Arne Bue Jensen 03:01
19 - I Wonder Who's Kissing Her Now - Arne Bue Jensen 03:54
20 - Sweet Georgia Brown - Finn Otto Hansen 04:37
21 - I Can't Believe That You're in Love with Me - Arne Bue Jensen 04:25
22 - Just a Closer Walk with Thee - Verner Work Nielsen 05:12
23 - Sweet Lorraine - Ole "Fessor" Lindgren 06:55
24 - Georgia - Steen Vig 05:45
25 - But Beautiful - Jesper Thilo 03:27
26 - Someday You´ll Be Sorry - Jesper Thilo 04:06
27 - Everything Happens to Me - Jesper Thilo 04:36
28 - Memories of You - Jesper Thilo 03:49
29 - Blue Turning Grey over You - Jesper Thilo 04:17
30 - Exactly Like You - Jesper Thilo 06:00
31 - Improvisation for the March of Time - Cutty Cutshall 00:59
32 - If I Had You - Cutty Cutshall 04:36
33 - The Sheik of Araby - Cutty Cutshall 01:49
34 - When My Sugar Walks Down the Street - Wild Bill Davison 04:48
35 - Avalon - Cutty Cutshall 04:03
36 - Squeeze Me - Cutty Cutshall 04:34
37 - Dippermouth Blues - Cutty Cutshall 03:17
38 - Keeping out of Mischief Now - Cutty Cutshall 02:24
39 - Black and Blue - Cutty Cutshall 03:34
40 - Do You Know What It Means to Miss New Orleans - Cutty Cutshall 02:30
41 - I Want to Be Happy - Cutty Cutshall 04:23
42 - Memphis Blues - Cutty Cutshall 04:42
43 - Ole Miss - Cutty Cutshall 03:31
44 - Sugar - Per Wahler 03:52
45 - Sweet and Lovely - Per Walther 03:07
46 - Serenade in Blue - Per Walther 03:45
47 - A Ghost of a Change - Per Walther 03:14
48 - Our Love Is Here to Stay - Per Walther 03:20
49 - Prelude to a Kiss - Per Walther 03:27
50 - She's Funny That Way - Per Walther 02:59
51 - Black Butterfly - Per Walther 03:51
52 - If I Had You - Per Walther 02:39
53 - Rockin' Chair - Per Walther 04:21
54 - Mandy Make up Your Mind - Per Walther 03:34
55 - When Your Lover Has Gone - Per Walther 03:38
56 - Sentimental Journey - Per Walther 05:04

Лог проверки качества
foobar2000 1.4.3 / Dynamic Range Meter 1.1.1
log date: 2021-10-30 08:24:36
--------------------------------------------------------------------------------
Analyzed: Arne Bue Jensen / The Danish Sessions (1-20)
          Cutty Cutshall / The Danish Sessions (21-32)
          Finn Otto Hansen / The Danish Sessions (33)
          Jesper Thilo / The Danish Sessions (34-39)
          Ole "Fessor" Lindgren / The Danish Sessions (40)
          Per Wahler / The Danish Sessions (41)
          Per Walther / The Danish Sessions (42-53)
          Steen Vig / The Danish Sessions (54)
          Verner Work Nielsen / The Danish Sessions (55)
          Wild Bill Davison / The Danish Sessions (56)
--------------------------------------------------------------------------------
DR         Peak         RMS     Duration Track
--------------------------------------------------------------------------------
DR13      -0.05 dB   -15.22 dB      1:56 01-Driftin' Down the River
DR10      -3.07 dB   -15.83 dB      8:04 02-Christopher Columbus
DR11      -3.31 dB   -17.61 dB      4:18 03-Baby, Won't You Please Come Home
DR11      -3.33 dB   -15.70 dB      4:36 04-Runnin' Wild
DR12      -3.81 dB   -18.37 dB      3:13 05-Save It, Pretty Mama
DR13       0.00 dB   -17.11 dB      3:52 06-A Cottage for Sale
DR11      -3.63 dB   -17.40 dB      4:27 07-China Boy
DR14      -3.81 dB   -19.56 dB      3:26 08-When It's Sleepy Time Down South
DR11      -3.81 dB   -17.73 dB      4:35 09-Old Fashioned Love
DR11      -3.81 dB   -17.41 dB      4:35 10-Blues for Ann
DR13      -1.76 dB   -16.76 dB      2:47 11-Way Down Yonder in New Orleans
DR12       0.00 dB   -17.55 dB      3:58 12-Farfar's Blues
DR15      -0.89 dB   -20.17 dB      3:33 13-I'm Confessin'
DR12      -1.45 dB   -16.43 dB      3:00 14-Blues My Naughty Sweetie Gives to Me
DR15       0.00 dB   -20.08 dB      3:31 15-I Can't Get Started
DR14      -0.42 dB   -18.17 dB      4:19 16-Lady Be Good
DR11       0.00 dB   -14.94 dB      2:54 17-All That Meat and No Potatoes
DR12       0.00 dB   -15.64 dB      3:02 18-I'm Gonna Sit Right Down and Write Myself a Letter
DR11       0.00 dB   -16.37 dB      3:54 19-I Wonder Who's Kissing Her Now
DR12      -2.07 dB   -16.20 dB      4:25 21-I Can't Believe That You're in Love with Me
DR11      -4.15 dB   -17.58 dB      1:00 31-Improvisation for the March of Time
DR11      -3.53 dB   -16.96 dB      4:36 32-If I Had You
DR12      -1.54 dB   -16.31 dB      1:49 33-The Sheik of Araby
DR11      -2.06 dB   -16.29 dB      4:03 35-Avalon
DR11      -1.99 dB   -16.01 dB      4:34 36-Squeeze Me
DR12       0.00 dB   -14.36 dB      3:18 37-Dippermouth Blues
DR11      -2.66 dB   -15.77 dB      2:24 38-Keeping out of Mischief Now
DR12      -2.44 dB   -16.34 dB      3:34 39-Black and Blue
DR11      -1.88 dB   -14.89 dB      2:30 40-Do You Know What It Means to Miss New Orleans
DR11      -0.79 dB   -13.30 dB      4:24 41-I Want to Be Happy
DR11      -2.42 dB   -15.54 dB      4:43 42-Memphis Blues
DR10      -3.24 dB   -16.11 dB      3:32 43-Ole Miss
DR11      -2.07 dB   -15.75 dB      4:37 20-Sweet Georgia Brown
DR16      -1.68 dB   -20.85 dB      3:27 25-But Beautiful
DR16      -0.08 dB   -18.92 dB      4:06 26-Someday You´ll Be Sorry
DR15      -3.05 dB   -21.45 dB      4:36 27-Everything Happens to Me
DR14       0.00 dB   -18.38 dB      3:50 28-Memories of You
DR14      -2.64 dB   -20.99 dB      4:18 29-Blue Turning Grey over You
DR14       0.00 dB   -17.49 dB      6:01 30-Exactly Like You
DR14      -2.07 dB   -19.31 dB      6:56 23-Sweet Lorraine
DR15      -0.35 dB   -18.01 dB      3:52 44-Sugar
DR16      -0.97 dB   -19.13 dB      3:07 45-Sweet and Lovely
DR13      -0.11 dB   -17.07 dB      3:46 46-Serenade in Blue
DR15      -1.34 dB   -18.53 dB      3:15 47-A Ghost of a Change
DR13      -1.47 dB   -16.04 dB      3:21 48-Our Love Is Here to Stay
DR14      -0.72 dB   -18.66 dB      3:28 49-Prelude to a Kiss
DR15      -1.34 dB   -18.54 dB      3:00 50-She's Funny That Way
DR16      -0.59 dB   -19.33 dB      3:51 51-Black Butterfly
DR14      -1.28 dB   -17.54 dB      2:40 52-If I Had You
DR14      -1.95 dB   -18.73 dB      4:21 53-Rockin' Chair
DR14      -0.56 dB   -17.54 dB      3:34 54-Mandy Make up Your Mind
DR13      -1.37 dB   -17.41 dB      3:38 55-When Your Lover Has Gone
DR13       0.00 dB   -15.96 dB      5:04 56-Sentimental Journey
DR16       0.00 dB   -19.56 dB      5:46 24-Georgia
DR13      -2.07 dB   -18.13 dB      5:12 22-Just a Closer Walk with Thee
DR11      -2.38 dB   -15.84 dB      4:48 34-When My Sugar Walks Down the Street
--------------------------------------------------------------------------------
Number of tracks:  56
Official DR value: DR13
Samplerate:        44100 Hz
Channels:          2
Bits per sample:   24
Bitrate:           1195 kbps
Codec:             FLAC
================================================================================
Приватный:
Нет (DHT включён)
Размер:
2.25 Гб (2,411,259,683 байт) » файлов: 61
Участники:
0 раздают, 0 качают (0 участников всего)
Внешние участники:
--- [ Обновить ]
16:21
390
Нет комментариев. Ваш будет первым!