Поиск

2021 John Moulder - Metamorphosis {Origin} [24-96]

2021 John Moulder - Metamorphosis {Origin} [24-96]
Стили:
Место записи:
Fresno County Public Library, Clovis, CA; Maximus Studios, Fresno, CA; Opus Studios, Berkeley, CA; Transient Sound, Chicago, IL; What's For Lunch? Recording, El Cerrito, CA
Дата издания диска:
5 ноября 2021
Номер по каталогу:
ORIGIN 82832
Носитель:
WEB
Формат:
PCM
Тип рипа:
tracks
Контейнер:
FLAC (*.flac)
Количество каналов:
2.0
Разрядность/ЧД:
24/96
Битрейт аудио:
lossless
Время звучания:
01:07:41
Наличие сканов:
только обложка

01. Game Changer (feat. Richie Beirach, Steve Rodby & Paul Wertico) (07:46)
02. Metamorphosis Suite: Metamorphosis (Intro) (02:05)
03. Metamorphosis Suite: Metamorphosis (feat. Richie Beirach, Steve Rodby & Paul Wertico) (10:36)
04. Metamorphosis Suite: Into the Dazzling Darkness (Intro) [feat. Richie Beirach] (02:36)
05. Metamorphosis Suite: Into the Dazzling Darkness (feat. Richie Beirach, Steve Rodby & Paul Wertico) (07:18)
06. Metamorphosis Suite: Morning Angels (Intro) [feat. Richie Beirach] (02:10)
07. Metamorphosis Suite: Morning Angels (feat. Richie Beirach, Steve Rodby & Paul Wertico) (07:28)
08. Metamorphosis Suite: Once in a Dark Night (feat. Richie Beirach, Steve Rodby & Paul Wertico) (07:49)
09. Sarum (feat. Richie Beirach, Steve Rodby & Paul Wertico) (07:18)
10. Magical Space (feat. Richie Beirach) (05:15)
11. Soliloquy (feat. Richie Beirach, Steve Rodby & Paul Wertico) (07:21)

Состав:
  • Richie Beirach     Piano
  • Dan Feiszli     Engineer, Mixing, Producer
  • Andrew Gilbert     Liner Notes
  • Ken Lee     Mastering
  • John Moulder     Composer, Guitar (Acoustic), Guitar (Electric), Guitar (Nylon String), Producer
  • Steve Rodby     Bass (Acoustic)
  • Eric Sherbon     Engineer
  • Vijay Tellis-Nayak     Engineer, Mastering, Mixing, Producer
  • Paul Wertico     Drums
Лог проверки качества
foobar2000 1.6.8 beta 3 / Dynamic Range Meter 1.1.1
log date: 2021-10-15 15:44:32
--------------------------------------------------------------------------------
Analyzed: John Moulder feat. Paul Wertico, STEVE RODBY & Richie Beirach / Metamorphosis (1-7)
          John Moulder feat. Richie Beirach / Metamorphosis (8-10)
          John Moulder / Metamorphosis (11)
--------------------------------------------------------------------------------
DR         Peak         RMS     Duration Track
--------------------------------------------------------------------------------
DR8       -0.30 dB    -9.35 dB      7:46 01-Game Changer
DR9       -0.30 dB   -11.75 dB     10:37 03-Metamorphosis Suite: Metamorphosis
DR12      -0.30 dB   -14.55 dB      7:19 05-Metamorphosis Suite: Into the Dazzling Darkness
DR9       -0.30 dB   -11.69 dB      7:29 07-Metamorphosis Suite: Morning Angels
DR9       -0.30 dB   -12.71 dB      7:49 08-Metamorphosis Suite: Once in a Dark Night
DR8       -0.30 dB   -10.17 dB      7:18 09-Sarum
DR8       -0.30 dB   -10.60 dB      7:21 11-Soliloquy
DR10      -0.30 dB   -13.84 dB      2:36 04-Metamorphosis Suite: Into the Dazzling Darkness (Intro)
DR11      -0.30 dB   -14.62 dB      2:11 06-Metamorphosis Suite: Morning Angels (Intro)
DR12      -0.30 dB   -14.73 dB      5:16 10-Magical Space
DR9       -3.02 dB   -14.60 dB      2:06 02-Metamorphosis Suite: Metamorphosis (Intro)
--------------------------------------------------------------------------------
Number of tracks:  11
Official DR value: DR9
Samplerate:        96000 Hz
Channels:          2
Bits per sample:   24
Bitrate:           2297 kbps
Codec:             FLAC
================================================================================
21:50
453
Нет комментариев. Ваш будет первым!