Поиск

2021 Jaubi, Latarnik, Tenderlonious - Nafs At Peace {Astigmatic AR017} [24-48]

2021 Jaubi, Latarnik, Tenderlonious - Nafs At Peace {Astigmatic AR017} [24-48]
Стили:
Дата издания диска:
28 мая 2021
Номер по каталогу:
AR017
Носитель:
WEB
Формат:
PCM
Тип рипа:
tracks
Контейнер:
FLAC (*.flac)
Количество каналов:
2.0
Разрядность/ЧД:
24/48
Битрейт аудио:
lossless
Время звучания:
00:42:38
Наличие сканов:
только обложка

Треклист:

1. Seek Refuge  (02:18)
2. Insia  (05:15)
3. Raga Gujri Todi  (06:13)
4. Straight Path  (07:27)
5. Mosty  (07:40)
6. Zari  (05:51)
7. Nafs at Peace  (07:54)

Лог проверки качества
foobar2000 1.4.5 / Замер динамического диапазона (DR) 1.1.1
Дата отчёта:  2021-07-31 13:37:27
--------------------------------------------------------------------------------
Анализ:   Jaubi / Nafs at Peace
--------------------------------------------------------------------------------
DR         Пики         RMS           Продолжительность трека
--------------------------------------------------------------------------------
DR10      -1.33 дБ   -16.28 дБ      2:19 1-Seek Refuge
DR9       -0.10 дБ   -10.32 дБ      5:16 2-Insia
DR8       -0.10 дБ   -10.41 дБ      6:14 3-Raga Gujri Todi
DR9       -0.10 дБ   -12.52 дБ      7:27 4-Straight Path
DR7       -0.10 дБ    -9.39 дБ      7:41 5-Mosty
DR10      -0.10 дБ   -11.65 дБ      5:51 6-Zari
DR8       -0.10 дБ    -9.28 дБ      7:54 7-Nafs at Peace
--------------------------------------------------------------------------------
Количество треков: 7
Реальные значения DR: DR9
Частота:   48000 Гц
Каналов:   2
Разрядность:   24
Битрейт:   1674 кбит/с
Кодек:   FLAC
================================================================================
По всем вопросам пишите личное сообщение пользователю M0p94ok.
14:17
170
Нет комментариев. Ваш будет первым!