Поиск

2019 Paz Miranda - Desvelado Punto Cardinal {Red Poncho Producciones} [24-48]

2019 Paz Miranda - Desvelado Punto Cardinal {Red Poncho Producciones} [24-48]
Дата издания диска:
22 марта 2019
Носитель:
WEB
Формат:
PCM
Тип рипа:
tracks
Контейнер:
FLAC (*.flac)
Количество каналов:
2.0
Разрядность/ЧД:
24/48
Битрейт аудио:
lossless
Время звучания:
00:35:02
Наличие сканов:
только обложка

Треклист:

01 - Pa' Volver 04:25
02 - Cautela 04:57
03 - Que Pasen los Días 04:01
04 - Soles Sin Días 04:42
05 - Camino 04:06
06 - Desvelado 04:36
07 - Cara o Cruz 04:05
08 - Deidad 04:10

Состав:
  • Paz Miranda — vocals
  • Marcel Bruna — guitars
  • Lucas Munilla — bass
  • Cristián Katila Baltazar — drums
Лог проверки качества
foobar2000 1.3.16 / Dynamic Range Meter 1.1.1
log date: 2019-03-25 16:18:32
--------------------------------------------------------------------------------
Analyzed: Paz Miranda / Desvelado Punto Cardinal
--------------------------------------------------------------------------------
DR         Peak         RMS     Duration Track
--------------------------------------------------------------------------------
DR10       0.00 dB   -12.37 dB      4:26 01-Pa' Volver
DR11       0.00 dB   -13.30 dB      4:57 02-Cautela
DR10       0.00 dB   -13.43 dB      4:01 03-Que Pasen los Días
DR12       0.00 dB   -13.33 dB      4:42 04-Soles Sin Días
DR11       0.00 dB   -13.72 dB      4:06 05-Camino
DR12       0.00 dB   -13.98 dB      4:36 06-Desvelado
DR10       0.00 dB   -11.85 dB      4:06 07-Cara o Cruz
DR10       0.00 dB   -13.21 dB      4:10 08-Deidad
--------------------------------------------------------------------------------
Number of tracks:  8
Official DR value: DR11
Samplerate:        48000 Hz
Channels:          2
Bits per sample:   24
Bitrate:           1678 kbps
Codec:             FLAC
================================================================================
По всем вопросам пишите личное сообщение пользователю M0p94ok.
17:01
167
Нет комментариев. Ваш будет первым!