Поиск

2021 Herb Alpert - Catch The Wind {Herb Alpert Presents} [24-96]

2021 Herb Alpert - Catch The Wind {Herb Alpert Presents} [24-96]
Дата издания диска:
17 сентября 2021
Номер по каталогу:
HRB 222
Носитель:
WEB
Формат:
PCM
Тип рипа:
tracks
Контейнер:
FLAC (*.flac)
Количество каналов:
2.0
Разрядность/ЧД:
24/96
Битрейт аудио:
lossless
Время звучания:
00:43:31
Наличие сканов:
только обложка

01 - Slick 03:21
02 - Catch The Wind 02:59
03 - Eleanor Rigby 03:35
04 - Dance With Me 03:29
05 - Will I See You Again 02:26
06 - Brazilian Moon 03:22
07 - Billy Cha 03:08
08 - I'm Comin' Home 03:15
09 - Yesterday 02:47
10 - Summertime 02:55
11 - Fantasy Island 03:05
12 - Zoo Train 21 03:14
13 - America The Beautiful 03:16
14 - Smile 02:39

Состав:
 

1         Slick
Acoustic Bass – Ben Shepard
Drums – Gary Novak
Keyboards, Producer – Jeff Lorber
Trumpet, Producer – Herb Alpert
Written-By – H. Alpert*, J. Pisano*
3:21
2        Catch The Wind
Bass, Producer – Andre de Santanna
Guitar, Keyboards – Bryan Velasco
Trumpet, Vocals, Producer – Herb Alpert
Vocals – Lani Hall
Written-By – A. De Santanna*, B. Velasco*, H. Alpert*, L. Hall*
2:59
3        Eleanor Rigby
Keyboards, Strings, Programmed By, Producer – Eduardo Del Barrio
Trumpet, Vocals, Producer – Herb Alpert
Vocals – Lani Hall
Written-By – J. Lennon & P. McCartney*
3:35
4        Dance With Me
Drums – Vinnie Colaiuta
Keyboards, Synth [Bass], Producer – Jeff Lorber
Trumpet, Producer – Herb Alpert
Written-By – H. Alpert*, J. Lorber*, L. Hall*
3:29
5        Will I See You Again
Bass – Hussain Jiffry
Piano, Strings, Programmed By, Producer – Bill Cantos
Trumpet, Producer – Herb Alpert
Written-By – B. Cantos*, H. Alpert*
2:26
6        Brazilian Moon
Drums – Gary Novak
Keyboards, Synth, Bass, Guitar, Producer – Jeff Lorber
Trumpet, Producer – Herb Alpert
Written-By – H. Alpert*, J. Lorber*, L. Hall*
3:22
7        Billy Cha
Guitar – Mitchell Long
Keyboards, Programmed By, Producer – Bill Cantos
Trumpet, Vocals – Herb Alpert
Written-By – B. Cantos*, H. Alpert*, L. Hall*
3:08
8        I'm Coming Home
Guitar – Mitchell Long
Keyboards, Programmed By, Sound Designer, Producer – Jochem van der Saag
Trumpet, Producer – Herb Alpert
Written-By – H. Alpert*
3:15
9        Yesterday
Flugelhorn, Producer – Herb Alpert
Keyboards, Programmed By, Sound Designer, Producer – Jochem van der Saag
Written-By – J. Lennon & P. McCartney*
2:47
10        Summertime
Guitar – Mitchell Long
Keyboards, Programmed By, Vocals – Bill Cantos
Synth – Randy Badazz Alpert*
Trumpet, Producer – Herb Alpert
Written-By – D. Heyward*, D. Heyward*, G. Gershwin*, I. Gershwin*
2:55
11        Fantasy Island
Drums – Gary Novak
Keyboards, Synth, Bass, Guitar, Producer – Jeff Lorber
Trumpet, Producer – Herb Alpert
Written-By – H. Alpert*, J. Lorber*
3:06
12         Zoo Train 21
Guitar – Mitchell Long
Keyboards, Programmed By, Sound Designer – Jochem van der Saag
Steel Drums – Robert Greenidge
Trumpet, Producer – Herb Alpert
Written-By – H. Alpert*
3:14
13        America The Beautiful
Keyboards, Programmed By, Sound Designer – Jochem van der Saag
Trumpet, Producer – Herb Alpert
Written-By – K. Lee Bates*, S. A. Rard*
3:16
14        Smile
Keyboards, Programmed By, Sounds – Jochem van der Saag
Trumpet, Producer – Herb Alpert
Written-By – C. Chaplin*, Geoffrey Parsons, John Turner (2)

Лог проверки качества
foobar2000 1.4.3 / Dynamic Range Meter 1.1.1
log date: 2022-01-06 13:48:40
--------------------------------------------------------------------------------
Analyzed: Herb Alpert / Catch The Wind
--------------------------------------------------------------------------------
DR         Peak         RMS     Duration Track
--------------------------------------------------------------------------------
DR8       -0.38 dB   -10.52 dB      3:21 01-Slick
DR8       -0.43 dB   -10.82 dB      2:59 02-Catch The Wind
DR8       -0.45 dB   -11.68 dB      3:35 03-Eleanor Rigby
DR7       -0.38 dB    -9.39 dB      3:30 04-Dance With Me
DR11      -0.48 dB   -14.55 dB      2:27 05-Will I See You Again
DR8       -0.41 dB    -9.63 dB      3:23 06-Brazilian Moon
DR8       -0.47 dB   -10.13 dB      3:09 07-Billy Cha
DR7       -0.37 dB    -9.55 dB      3:15 08-I'm Comin' Home
DR10      -0.56 dB   -13.77 dB      2:47 09-Yesterday
DR10      -0.31 dB   -12.09 dB      2:55 10-Summertime
DR9       -0.37 dB   -10.47 dB      3:06 11-Fantasy Island
DR8       -0.34 dB    -9.76 dB      3:15 12-Zoo Train 21
DR9       -0.42 dB   -11.64 dB      3:16 13-America The Beautiful
DR9       -0.53 dB   -13.37 dB      2:40 14-Smile
--------------------------------------------------------------------------------
Number of tracks:  14
Official DR value: DR9
Samplerate:        96000 Hz
Channels:          2
Bits per sample:   24
Bitrate:           2382 kbps
Codec:             FLAC
================================================================================
Приватный:
Нет (DHT включён)
Размер:
831.40 Мб (871,785,825 байт) » файлов: 18
Участники:
1 раздают, 1 качают (2 участников всего)
Внешние участники:
1 раздают, 0 качают (1 участников всего) [ Обновить ]
23:22
463
Нет комментариев. Ваш будет первым!