Поиск

1995 Andrew Cyrille Quintet - Ode To The Living Tree (2017) {Venus} [DSD64 ISO]

1995 Andrew Cyrille Quintet - Ode To The Living Tree (2017) {Venus} [DSD64 ISO]
Дата записи диска:
18 декабря - 19 декабря 1994
Место записи:
XIPPI Studio, Dakar, Senegal
Издатель (лейбл):
Номер по каталогу:
VHGD-244
Носитель:
SACD
Формат:
DSD
Тип рипа:
image
Контейнер:
ISO (*.iso)
Количество каналов:
2.0
Разрядность/ЧД:
64 (2,8 MHz/1 Bit)
Битрейт аудио:
lossless
Время звучания:
00:54:24
Наличие сканов:
только обложка

1. Ode To The Living Tree  8:26
2. Dakar Darkness  5:37
3. So That Life Can Endure..., P.S. With Love  9:50
4. A Love Supreme - "Acknowledgement & Resolution"  19:12
5. Midnight Samba  10:43

Состав:
  •     Alto Saxophone – Oliver Lake
  •     Bass – Fred Hopkins
  •     Drums – Andrew Cyrille
  •     Drums [African] – Mor Thiam (tracks: 1, 8)
  •     Edited By – Andrew Cyrille, Joe Bartoldus*
  •     Electric Piano – Adegoke Steve Colson
  •     Engineer – Serge Devesvre
  •     Producer – Tetsuo Hara
  •     Tenor Saxophone, Bass Clarinet – David Murray
Лог проверки качества
foobar2000 1.6.8 / Dynamic Range Meter 1.1.1
log date: 2021-12-15 10:53:57
--------------------------------------------------------------------------------
Analyzed: ANDREW CYRILLE QUINTET / Ode To The Living Tree
--------------------------------------------------------------------------------
DR         Peak         RMS     Duration Track
--------------------------------------------------------------------------------
DR6       -4.96 dB   -12.24 dB      8:50 01-Ode To The Living Tree
DR7       -5.20 dB   -13.55 dB      5:42 02-Dakar Darkness
DR7       -5.13 dB   -13.89 dB      9:54 03-So That Life Can Endure..., P.S. With Love
DR6       -4.92 dB   -12.55 dB     19:17 04-A Love Supreme "Acknowledgement & Resolution"
DR7       -5.04 dB   -13.07 dB     10:42 05-Midnight Samba
--------------------------------------------------------------------------------
Number of tracks:  5
Official DR value: DR6
Samplerate:        2822400 Hz / PCM Samplerate: 88200 Hz
Channels:          2
Bits per sample:   1
Bitrate:           5645 kbps
Codec:             DSD64
================================================================================
17:14
477
Нет комментариев. Ваш будет первым!