Поиск

2021 Harold Mabern - Mabern Plays Coltrane {Smoke Sessions} [24-48]

2021 Harold Mabern - Mabern Plays Coltrane {Smoke Sessions} [24-48]
Стили:
Дата издания диска:
3 декабря 2021
Издатель (лейбл):
Носитель:
WEB
Формат:
PCM
Тип рипа:
tracks
Контейнер:
FLAC (*.flac)
Количество каналов:
2.0
Разрядность/ЧД:
24/48
Битрейт аудио:
lossless
Время звучания:
01:04:59
Наличие сканов:
только обложка

Треклист:

01 - Dahomey Dance 07:13
02 - Blue Train 10:42
03 - Impressions 09:41
04 - Dear Lord 05:36
05 - My Favorite Things 11:47
06 - Naima 09:09
07 - Straight Street 10:51

Состав:
  • Harold Mabern, piano
  • Eric Alexander, tenor saxophone
  • John Webber, double bass
  • Joe Farnsworth, drums
  • Steve Davis, trombone
  • Vincent Herring, saxophone
Лог проверки качества
foobar2000 1.4.3 / Dynamic Range Meter 1.1.1
log date: 2021-12-05 07:48:45
--------------------------------------------------------------------------------
Analyzed: Harold Mabern / Mabern Plays Coltrane
--------------------------------------------------------------------------------
DR         Peak         RMS     Duration Track
--------------------------------------------------------------------------------
DR8       -1.30 dB   -10.95 dB      7:14 01-Dahomey Dance
DR8       -1.32 dB   -11.85 dB     10:42 02-Blue Train
DR8       -1.30 dB   -10.55 dB      9:42 03-Impressions
DR8       -1.50 dB   -10.88 dB      5:36 04-Dear Lord
DR8       -1.50 dB   -11.47 dB     11:47 05-My Favorite Things
DR8       -1.30 dB   -11.18 dB      9:10 06-Naima
DR8       -1.30 dB   -11.12 dB     10:51 07-Straight Street
--------------------------------------------------------------------------------
Number of tracks:  7
Official DR value: DR8
Samplerate:        48000 Hz
Channels:          2
Bits per sample:   24
Bitrate:           1782 kbps
Codec:             FLAC
================================================================================
По всем вопросам пишите личное сообщение пользователю M0p94ok.
17:05
100
Нет комментариев. Ваш будет первым!