Поиск

2004 John Di Martino's Romantic Jazz Trio - The Sweetest Sound (2018) {Venus} [DSD64 ISO]

2004 John Di Martino's Romantic Jazz Trio - The Sweetest Sound (2018) {Venus} [DSD64 ISO]
Дата записи диска:
30 августа - 31 августа 2003
Место записи:
Avatar Studios, New York City, NY, USA
Дата издания диска:
26 апреля 2004
Издатель (лейбл):
Номер по каталогу:
VHGD-268
Носитель:
SACD
Формат:
DSD
Тип рипа:
image
Контейнер:
ISO (*.iso)
Количество каналов:
2.0
Разрядность/ЧД:
64 (2,8 MHz/1 Bit)
Битрейт аудио:
lossless
Время звучания:
01:05:37
Наличие сканов:
только обложка
Треклист:

01. La Comparsa《 E. Lequona 》
02. My Melancholy Baby《 E. Burnett 》
03. And I Love Her《 J. Lennon 》
04. The Gentle Rain《 L. Bonfa 》
05. The Sweetest Sound《 R. Rodgers 》
06. Drume Negrita《 E. Grenat 》
07. In My Solitude《 D.Ellington 》
08. The Lamp Is Low《 P. Derose, B. Shefter 》
09. The Things I Love《 P. Tchaikovsky 》
10. You Must Believe In Spring《 M. Legrand 》
11. Historia De Un Amor《 C. Almaran 》

Состав:
  • John Di Martino — piano
  • Ugonna Okegwo — bass
  • Grady Tate — drums
Лог проверки качества
foobar2000 1.6.8 / Dynamic Range Meter 1.1.1
log date: 2021-12-05 11:18:22
--------------------------------------------------------------------------------
Analyzed: ROMANTIC JAZZ TRIO / The Sweetest Sound
--------------------------------------------------------------------------------
DR         Peak         RMS     Duration Track
--------------------------------------------------------------------------------
DR7       -5.31 dB   -13.28 dB      3:55 01-La Comparsa
DR6       -5.07 dB   -13.97 dB      6:44 02-My Melancholy Baby
DR6       -4.95 dB   -12.97 dB      7:14 03-And I Love Her
DR9       -5.46 dB   -16.98 dB      6:44 04-The Gentle Rain
DR6       -5.37 dB   -13.09 dB      5:02 05-The Sweetest Sound
DR8       -5.36 dB   -14.45 dB      5:01 06-Drume Negrita
DR9       -5.40 dB   -16.49 dB      5:19 07-In My Solitude
DR6       -5.16 dB   -12.77 dB      4:44 08-The Lamp Is Low
DR7       -5.40 dB   -14.41 dB      6:23 09-The Things I Love
DR6       -5.07 dB   -13.45 dB      9:17 10-You Must Belive In Spring
DR9       -5.47 dB   -17.78 dB      5:14 11-Historia De Un Amor
--------------------------------------------------------------------------------
Number of tracks:  11
Official DR value: DR7
Samplerate:        2822400 Hz / PCM Samplerate: 88200 Hz
Channels:          2
Bits per sample:   1
Bitrate:           5645 kbps
Codec:             DSD64
================================================================================
12:46
362
Нет комментариев. Ваш будет первым!