Поиск

2021 Frank Woeste, Ryan Keberle and Vincent Courtois - Reverso - Live {Outnote} [24-48]

2021 Frank Woeste, Ryan Keberle and Vincent Courtois - Reverso - Live {Outnote} [24-48]
Дата издания диска:
5 ноября 2021
Носитель:
WEB
Формат:
PCM
Тип рипа:
tracks
Контейнер:
FLAC (*.flac)
Количество каналов:
2.0
Разрядность/ЧД:
24/48
Битрейт аудио:
lossless
Время звучания:
00:54:12
Наличие сканов:
только обложка

Треклист:

1. Exemplar (Live) (08:53)
2. Absinthe (Live) (08:20)
3. Blue Feather (Live) (03:51)
4. Montparnasse (Live) (06:15)
5. L' Arlequin lunaire: Intro (Live) (00:50)
6. L'Arlequin lunaire (Live) (08:09)
7. Up North (Live) (05:49)
8. Sisters of Mine (Live) (04:46)
9. Clara (Live) (07:19)

Состав:
  • Frank Woeste ‎- piano
  • Ryan Keberle ‎- trombone
  • Vincent Courtois ‎- cello
Доп. инфо:

Дебютировав с Suite Ravel в 2018 году, Reverso зарекомендовал себя как виртуозный, трансокеанский камерный джазовый ансамбль, премьеры новых композиций, вдохновленных французскими классическими композиторами. В поддержку второго релиза группы 2019 года "The Melodic Line" (дань уважения композиторам XX века, известным как "Группа шести" или "Les Six"), в феврале и марте 2020 года Reverso гастролировал более чем в 10 городах на двух континентах. Музыка росла и углублялась с каждым вечером, кульминацией стало выступление в парижском Le Triton 13 марта 2021 года, записанное в высоком разрешении на аудио и видео France Musique (грубый аналог NPR) для трансляции по всей стране весной того же года. После прослушивания участники этого уникального трио - пианист Франк Воесте, тромбонист Райан Кеберле и виолончелист Винсент Куртуа - согласились, что произошедшее в тот вечер было достаточно волшебным для полноценного альбома. Получившийся в результате Live демонстрирует мелодические дары Reverso, экспансивное звучание и неоспоримое взаимодействие.

Лог проверки качества
foobar2000 1.4.6 / Замер динамического диапазона (DR) 1.1.1
Дата отчёта:  2021-12-07 07:18:42
--------------------------------------------------------------------------------
Анализ:   Frank Woeste, Ryan Keberle and Vincent Courtois / Reverso - Live (1-8)
          Frank Woeste / Reverso - Live (9)
--------------------------------------------------------------------------------
DR         Пики         RMS           Продолжительность трека
--------------------------------------------------------------------------------
DR9       -0.13 дБ   -11.43 дБ      8:53 01-Exemplar (Live)
DR8       -0.13 дБ   -11.68 дБ      8:21 02-Absinthe (Live)
DR9       -0.13 дБ   -11.14 дБ      3:51 03-Blue Feather (Live)
DR9       -0.13 дБ   -12.65 дБ      6:15 04-Montparnasse (Live)
DR8       -0.13 дБ   -11.46 дБ      8:10 06-L'Arlequin lunaire (Live)
DR8       -0.13 дБ   -11.46 дБ      5:49 07-Up North (Live)
DR9       -0.13 дБ   -12.44 дБ      4:46 08-Sisters of Mine (Live)
DR9       -0.13 дБ   -12.25 дБ      7:19 09-Clara (Live)
DR10      -0.15 дБ   -15.36 дБ      0:50 05-L' Arlequin lunaire: Intro (Live)
--------------------------------------------------------------------------------
Количество треков: 9
Реальные значения DR: DR9
Частота:   48000 Гц
Каналов:   2
Разрядность:   24
Битрейт:   1335 кбит/с
Кодек:   FLAC
================================================================================
По всем вопросам пишите личное сообщение пользователю M0p94ok.
21:12
111
Нет комментариев. Ваш будет первым!