Поиск

2008 Steve Kuhn Trio - Baubles, Bangles And Beads (2016) {Venus} [DSD64 ISO]

2008 Steve Kuhn Trio - Baubles, Bangles And Beads (2016) {Venus} [DSD64 ISO]
Дата записи диска:
30 августа - 31 августа 2007
Место записи:
The Studio, New York
Дата переиздания диска:
17 августа 2016
Издатель (лейбл):
Номер по каталогу:
VHGD-164
Носитель:
SACD
Формат:
DSD
Тип рипа:
image
Контейнер:
ISO (*.iso)
Количество каналов:
2.0
Разрядность/ЧД:
64 (2,8 MHz/1 Bit)
Битрейт аудио:
lossless
Время звучания:
01:00:44
Наличие сканов:
только обложка

01. And This Is My Beloved ~ Nocturne From Strings Quartet No.2  04:54
02. Till The End Of Time ~ Polonaise NO.53  06:06
03. Symphony No.3, 3rd Movement  05:03
04. If You Are But A Dream ~ Romance  04:54
05. Stranger In Paradise ~ Plovetzian Dance  03:58
06. Gymnopedie No.1  06:10
07. I Think Of You ~ Piano Concerto No.2, 1st Movement Op18  05:36
08. Prelude In C Minor No.20, Op28  04:01
09. I Look At Heaven ~ Piano Concerto in A Minor Op6, 1st Movement  05:15
10. Baubles, Bangles And Beads ~ Strings Quartet No.2 in D  05:33
11. Vilia ~ From The Merry Widow  04:37
12. Prelude No.7, Op28  05:23

Состав:
  • Steve Kuhn — piano
  • Dave Finck — bass
  • Billy Drummond — drums
Лог проверки качества
foobar2000 1.6.8 / Dynamic Range Meter 1.1.1
log date: 2021-12-06 12:39:36
--------------------------------------------------------------------------------
Analyzed: STEVE KUHN TRIO / Baubles, Bangles And Beads
--------------------------------------------------------------------------------
DR         Peak         RMS     Duration Track
--------------------------------------------------------------------------------
DR7       -4.68 dB   -13.55 dB      4:50 01-And This Is My Beloved
DR7       -4.91 dB   -14.31 dB      6:02 02-Till The End Of Time
DR7       -5.01 dB   -14.32 dB      4:59 03-Symphony No.3, 3rd Movement
DR7       -5.34 dB   -15.06 dB      4:50 04-If You Are But A Dream
DR7       -4.90 dB   -13.03 dB      3:53 05-Stranger In Paradise
DR6       -4.98 dB   -13.68 dB      6:06 06-Gymnopedie No.1
DR7       -4.93 dB   -13.59 dB      5:32 07-I Think Of You
DR8       -5.10 dB   -15.42 dB      3:56 08-Prelude In C Minor No.20, Op28
DR7       -4.87 dB   -13.76 dB      5:11 09-I Look At Hevern
DR7       -5.02 dB   -13.74 dB      5:29 10-Baubles, Bangles And Beads
DR7       -5.12 dB   -13.77 dB      4:32 11-Vilia
DR8       -5.22 dB   -15.07 dB      5:24 12-Prelude No.7, Op28
--------------------------------------------------------------------------------
Number of tracks:  12
Official DR value: DR7
Samplerate:        2822400 Hz / PCM Samplerate: 88200 Hz
Channels:          2
Bits per sample:   1
Bitrate:           5645 kbps
Codec:             DSD64
================================================================================
12:26
500
Нет комментариев. Ваш будет первым!