Поиск

2021 Etienne Mbappe, Nec+ - Time Will Tell {Framboise Production} [24-48]

2021 Etienne Mbappe, Nec+ - Time Will Tell {Framboise Production} [24-48]
Дата издания диска:
15 октября 2021
Носитель:
WEB
Формат:
PCM
Тип рипа:
tracks
Контейнер:
FLAC (*.flac)
Количество каналов:
2.0
Разрядность/ЧД:
24/48
Битрейт аудио:
lossless
Наличие сканов:
только обложка

Треклист:

01. Samaah Xarit 04:29
02. Not Time Yet 04:06
03. No Woman No Smile 05:27
04. Hieroglyphs 04:56
05. Mookam Bilan 05:42
06. London Elongui 04:23
07. Dark Floyd 05:02
08. Frozen Lake 04:39
09. Kalos 05:23
10. New Way 04:27

Состав:
  • Etienne Mbappé — basse, chant
  • Nicolas Viccaro — batterie, percussions
  • Christophe Cravero — piano, violon

 

Лог проверки качества
foobar2000 1.6.2 / Dynamic Range Meter 1.1.1
log date: 2021-10-20 15:51:09

--------------------------------------------------------------------------------
Analyzed: Etienne Mbappe / Time Will Tell
--------------------------------------------------------------------------------

DR         Peak         RMS     Duration Track
--------------------------------------------------------------------------------
DR11      -0.74 dB   -13.90 dB      4:29 01-Samaah Xarit
DR10      -0.66 dB   -13.76 dB      4:07 02-Not Time Yet
DR11      -0.98 dB   -14.47 dB      5:28 03-No Woman No Smile
DR12      -1.00 dB   -16.03 dB      4:57 04-Hieroglyphs
DR10      -0.83 dB   -13.09 dB      5:43 05-Mookam Bilan
DR11      -0.71 dB   -15.00 dB      4:23 06-London Elongui
DR10      -0.58 dB   -14.20 dB      5:03 07-Dark Floyd
DR10      -0.86 dB   -13.37 dB      4:39 08-Frozen Lake
DR10      -0.74 dB   -13.76 dB      5:24 09-Kalos
DR10      -1.28 dB   -13.97 dB      4:27 10-New Way
--------------------------------------------------------------------------------

Number of tracks:  10
Official DR value: DR10

Samplerate:        48000 Hz
Channels:          2
Bits per sample:   24
Bitrate:           1584 kbps
Codec:             FLAC
================================================================================
16:43
646
Нет комментариев. Ваш будет первым!