Поиск

2020 Naoko Terai - Flourish {Universal} [24-96]

2020 Naoko Terai - Flourish {Universal} [24-96]
Стили:
Дата издания диска:
15 апреля 2020
Издатель (лейбл):
Носитель:
WEB
Формат:
PCM
Тип рипа:
tracks
Контейнер:
FLAC (*.flac)
Количество каналов:
2.0
Разрядность/ЧД:
24/96
Битрейт аудио:
lossless
Наличие сканов:
только обложка

01. Turandot - Nessun Dorma!  06:00
02. Sertão  04:46
03. Theme From Schindler's List  07:06
04. Emotion 03:51
05. La Champagne  02:48
06. Indigo Aria  04:29
07. James  07:00
08. Île de la Cité  04:50
09. Peter Gunn  04:48
10. Tsukiyoni Yanagi  04:07

Состав:
  • Ryo Arayama    Drums
  • Mitsuaki Furuno    Double Bass
  • Naoki Kitajima    Composer, Piano, Recording Arranger
  • Tomoo Suzuki    Mixing Engineer, Recording
  • Naoko Terai    Composer, Producer, Recording Arranger, Violin
  • John Williams    Composer
  • Akihito Yoshikawa    Mastering Engineer
Лог проверки качества
foobar2000 1.6.2 / Dynamic Range Meter 1.1.1
log date: 2021-10-20 19:40:06

--------------------------------------------------------------------------------
Analyzed: Naoko Terai / Flourish
--------------------------------------------------------------------------------

DR         Peak         RMS     Duration Track
--------------------------------------------------------------------------------
DR9       -0.20 dB   -12.49 dB      6:00 01-Turandot - Nessun Dorma!
DR9       -0.20 dB   -12.20 dB      4:47 02-Sertão
DR12      -1.34 dB   -18.48 dB      7:07 03-Theme From Schindler's List
DR10      -0.20 dB   -12.54 dB      3:52 04-Emotion
DR11      -0.38 dB   -15.45 dB      2:49 05-La Champagne
DR11      -0.37 dB   -16.38 dB      4:29 06-Indigo Aria
DR10      -0.20 dB   -12.60 dB      7:00 07-James
DR12      -0.20 dB   -15.40 dB      4:51 08-Île de la Cité
DR10      -0.20 dB   -12.78 dB      4:48 09-Peter Gunn
DR11      -0.20 dB   -14.69 dB      4:07 10-Tsukiyoni Yanagi
--------------------------------------------------------------------------------

Number of tracks:  10
Official DR value: DR10

Samplerate:        96000 Hz
Channels:          2
Bits per sample:   24
Bitrate:           2762 kbps
Codec:             FLAC
================================================================================
Приватный:
Да (DHT отключён)
Размер:
1.00 Гб (1,076,613,647 байт) » файлов: 12
Участники:
9 раздают, 0 качают (9 участников всего)
Внешние участники:
--- [ Обновить ]
19:52
580
Нет комментариев. Ваш будет первым!