Поиск

2021 Caterina Valente, Catherine Michel - Girltalk - The Way We Were {Nagel Heyer} [24-44,1]

2021 Caterina Valente, Catherine Michel - Girltalk - The Way We Were {Nagel Heyer} [24-44,1]
Стили:
Дата издания диска:
23 июля 2021
Издатель (лейбл):
Носитель:
WEB
Формат:
PCM
Тип рипа:
tracks
Контейнер:
FLAC (*.flac)
Количество каналов:
2.0
Разрядность/ЧД:
24/44,1
Битрейт аудио:
lossless
Время звучания:
00:53:02
Наличие сканов:
только обложка

Треклист:

01 - Chiquilin De Bachin (04:05)
02 - Martina (Les Enfants Qui Pleurent) (03:01)
03 - And So It Goes (03:35)
04 - Gigi (05:00)
05 - Prelude No. 3 (03:20)
06 - With a Song in My Heart (04:27)
07 - Andantino (Sonata in C Minor) - The Most Beautiful Sea (04:40)
08 - The Way We Were (03:53)
09 - All of a Sudden My Heart Sings (03:47)
10 - Tout ca (Count Every Star) (02:44)
11 - Eu Nao Existe (03:34)
12 - Bolero (05:22)
13 - Papa N'as Pas Voulu (02:42)
14 - Quien Sera (02:46)

Лог проверки качества
foobar2000 1.4.2 / Dynamic Range Meter 1.1.1
log date: 2021-07-25 15:36:57
--------------------------------------------------------------------------------
Analyzed: Caterina Valente, Catherine Michel / Girltalk - The Way We Were
--------------------------------------------------------------------------------
DR         Peak         RMS     Duration Track
--------------------------------------------------------------------------------
DR10      -1.00 dB   -13.36 dB      4:06 01-Chiquilin De Bachin
DR11      -1.00 dB   -15.08 dB      3:02 02-Martina (Les Enfants Qui Pleurent)
DR11      -1.00 dB   -13.88 dB      3:35 03-And So It Goes
DR11      -1.00 dB   -14.76 dB      5:01 04-Gigi
DR11      -1.00 dB   -16.08 dB      3:21 05-Prelude No. 3
DR15      -1.00 dB   -19.33 dB      4:28 06-With a Song in My Heart
DR12      -1.00 dB   -15.76 dB      4:40 07-Andantino (Sonata in C Minor) / The Most Beautiful Sea
DR11      -1.00 dB   -14.62 dB      3:53 08-The Way We Were
DR11      -1.00 dB   -14.15 dB      3:47 09-All of a Sudden My Heart Sings
DR11      -1.00 dB   -14.30 dB      2:45 10-Tout Г‡a (Count Every Star)
DR10      -1.00 dB   -13.88 dB      3:35 11-Eu NГЈo Existe
DR9       -1.00 dB   -12.83 dB      5:22 12-Bolero
DR11      -1.00 dB   -14.28 dB      2:42 13-Papa N'as Pas Voulu
DR12      -1.00 dB   -16.16 dB      2:46 14-QuiГ©n SerГЎ
--------------------------------------------------------------------------------
Number of tracks:  14
Official DR value: DR11
Samplerate:        44100 Hz
Channels:          2
Bits per sample:   24
Bitrate:           1428 kbps
Codec:             FLAC
================================================================================
По всем вопросам пишите личное сообщение пользователю M0p94ok.
19:28
205
Нет комментариев. Ваш будет первым!