Поиск

2020 Emanuele Passerini - Trio Geometrics {Dodicilune} [24-48]

2020 Emanuele Passerini - Trio Geometrics {Dodicilune} [24-48]
Дата записи диска:
11 мая - 12 мая 2019
Место записи:
Il Guscio Recording Studio, Milan, Italy
Дата издания диска:
10 ноября 2020
Номер по каталогу:
ED436
Носитель:
WEB
Формат:
PCM
Тип рипа:
tracks
Контейнер:
FLAC (*.flac)
Количество каналов:
2.0
Разрядность/ЧД:
24/48
Битрейт аудио:
lossless
Время звучания:
01:10:08
Наличие сканов:
только обложка

01 - Stevelonious (06:49)
02 - Invocation - Trayne (10:57)
03 - Stairs (08:19)
04 - Jump & Run (05:45)
05 - Intervals (06:04)
06 - Glancing Backwards - Green Walnut - Amber (16:33)
07 - Deadline - The Crust (10:48)
08 - Untitled (04:51)

Состав:
  •     Double Bass – Tito Mangialajo Rantzer
  •     Drums, Percussion – Tiziano Tononi
  •     Engineer [Sound Engineer (Recording, Mixing)] – Lorenzo Farolfi
  •     Liner Notes [English] – Emanuele Passerini, Tiziano Tononi
  •     Management [Label Manager] – Maurizio Bizzochetti
  •     Mastered By – Maurizio Giannotti
  •     Producer [Produced By] – Emanuele Passerini, Gabriele Rampino, Maurizio Bizzochetti
  •     Soprano Saxophone – Emanuele Passerini

Mixed July to September 2019 at Il Guscio Recording Studio, Milan, Italy
Mastered October 2019 by (...) at New Mastering, Milan, Italy

Лог проверки качества
foobar2000 1.4.2 / Dynamic Range Meter 1.1.1
log date: 2021-07-22 11:44:02
--------------------------------------------------------------------------------
Analyzed: Emanuele Passerini / Trio Geometrics
--------------------------------------------------------------------------------
DR         Peak         RMS     Duration Track
--------------------------------------------------------------------------------
DR10      -0.10 dB   -11.70 dB      6:49 01-Stevelonious
DR8       -0.02 dB   -10.37 dB     10:57 02-Invocation - Trayne
DR9        0.00 dB   -11.33 dB      8:19 03-Stairs
DR8       -0.07 dB    -9.82 dB      5:46 04-Jump & Run
DR10      -0.17 dB   -14.10 dB      6:05 05-Intervals
DR8        0.00 dB   -10.33 dB     16:33 06-Glancing Backwards - Green Walnut - Amber
DR10      -0.13 dB   -13.01 dB     10:48 07-Deadline - The Crust
DR8       -0.03 dB    -9.15 dB      4:52 08-Untitled
--------------------------------------------------------------------------------
Number of tracks:  8
Official DR value: DR9
Samplerate:        48000 Hz
Channels:          2
Bits per sample:   24
Bitrate:           1713 kbps
Codec:             FLAC
================================================================================
Приватный:
Нет (DHT включён)
Размер:
822.63 Мб (862,586,619 байт) » файлов: 9
Участники:
0 раздают, 0 качают (0 участников всего)
Внешние участники:
3 раздают, 1 качают (4 участников всего) [ Обновить ]
12:52
442
Нет комментариев. Ваш будет первым!