Поиск

2021 Anna Webber - Idiom {Pi Recordings} [24-96]

2021 Anna Webber - Idiom {Pi Recordings} [24-96]
Место записи:
Firehouse 12 Recording Studios; The Bunker, Brooklyn, New York City, NY, USA
Дата издания диска:
28 мая 2021
Битрейт аудио:
lossless

◈ 01 - Idiom I (00:11:17)
◈ 02 - Idiom IV (00:07:47)
◈ 03 - Forgotten Best (00:08:39)
◈ 04 - Idiom V (00:04:48)
◈ 05 - Idiom III (00:10:01)
◈ 06 - Idiom VI - Movement I (00:08:41)
◈ 07 - Idiom VI - Interlude 1 (00:03:34)
◈ 08 - Idiom VI - Movement II (00:09:10)
◈ 09 - Idiom VI - Interlude 2 & Movement III (00:12:19)
◈ 10 - Idiom VI - Movement IV (00:07:06)
◈ 11 - Idiom VI - Interlude 3 & Movement V (00:11:27)
◈ 12 - Idiom VI - Interlude 4 & Movement VI (00:09:33)

Состав:
  • Alto Saxophone, Mixed By – Nathaniel Morgan (2) (треков: 2-1 to 2-7)
  • Bass – Nick Dunston (треков: 2-1 to 2-7)
  • Cello – Mariel Roberts (треков: 2-1 to 2-7)
  • Conductor – Eric Wubbels (треков: 2-1 to 2-7)
  • Drums – John Hollenbeck (треков: 1-1 to 1-5), Satoshi Takeishi (треков: 2-1 to 2-7)
  • Executive-Producer – Seth Rosner, Yulun Wang
  • Horn – David Byrd-Marrow (треков: 2-1 to 2-7)
  • Mastered By – Brent Lambert
  • Piano – Matt Mitchell (6) (треков: 1-1 to 1-5)
  • Recorded By – Aaron Nevezie (треков: 2-1 to 2-7), Greg DiCrosta (треков: 1-1 to 1-5)
  • Synthesizer – Liz Kosack (треков: 2-1 to 2-7)
  • Tenor Saxophone, Clarinet, Contra-Alto Clarinet – Yuma Uesaka (треков: 2-1 to 2-7)
  • Tenor Saxophone, Flute, Bass Flute, Producer, Edited By, Composed By – Anna Webber
  • Trombone – Jacob Garchik (треков: 2-1 to 2-7)
  • Trumpet – Adam O'Farrill (треков: 2-1 to 2-7)
  • Violin – Joanna Mattrey (треков: 2-1 to 2-7)
Лог проверки качества
foobar2000 1.4.2 / Dynamic Range Meter 1.1.1
log date: 2021-05-28 14:53:14

--------------------------------------------------------------------------------
Analyzed: Anna Webber / Idiom
--------------------------------------------------------------------------------

DR         Peak         RMS     Duration Track
--------------------------------------------------------------------------------
DR10      -0.83 dB   -14.17 dB     11:18 01-Idiom I
DR10      -0.83 dB   -15.54 dB      7:47 02-Idiom IV
DR10      -0.83 dB   -13.33 dB      8:40 03-Forgotten Best
DR15      -3.16 dB   -22.73 dB      4:48 04-Idiom V
DR10      -0.83 dB   -13.77 dB     10:02 05-Idiom III
DR10      -0.48 dB   -15.55 dB      8:41 06-Idiom VI - Movement I
DR10      -3.24 dB   -21.37 dB      3:34 07-Idiom VI - Interlude 1
DR11      -0.48 dB   -15.35 dB      9:11 08-Idiom VI - Movement II
DR11      -0.48 dB   -15.04 dB     12:20 09-Idiom VI - Interlude 2 & Movement III
DR11      -0.48 dB   -14.67 dB      7:06 10-Idiom VI - Movement IV
DR12      -0.48 dB   -17.61 dB     11:27 11-Idiom VI - Interlude 3 & Movement V
DR8       -0.48 dB   -13.17 dB      9:34 12-Idiom VI - Interlude 4 & Movement VI
--------------------------------------------------------------------------------

Number of tracks:  12
Official DR value: DR11

Samplerate:        96000 Hz
Channels:          2
Bits per sample:   24
Bitrate:           2690 kbps
Codec:             FLAC
================================================================================
Приватный:
Нет (DHT включён)
Размер:
1.96 Гб (2,102,689,859 байт) » файлов: 13
Участники:
0 раздают, 0 качают (0 участников всего)
Внешние участники:
11 раздают, 4 качают (15 участников всего) [ Обновить ]
14:16
509
Нет комментариев. Ваш будет первым!