Поиск

2021 Andy LaVerne - Rhapsody {SteepleChase} [CD]

2021 Andy LaVerne - Rhapsody {SteepleChase} [CD]
Стили:
Дата издания диска:
15 февраля 2021
Издатель (лейбл):
Номер по каталогу:
SCCD 31905
Носитель:
CD
Тип рипа:
tracks+.cue
Аудиокодек:
FLAC (*.flac)
Битрейт аудио:
lossless
Время звучания:
01:03:55
Наличие сканов:
да
Страна-производитель диска (релиза):
USA
Релизёр (источник):
www
Лог создания рипа
Exact Audio Copy V1.3 from 2. September 2016

EAC extraction logfile from 21. May 2021, 23:44

Andy LaVerne / Rhapsody

Used drive  : TSSTcorpCDDVDW TS-H653N   Adapter: 1  ID: 0

Read mode               : Secure
Utilize accurate stream : Yes
Defeat audio cache      : Yes
Make use of C2 pointers : No

Read offset correction                      : 6
Overread into Lead-In and Lead-Out          : No
Fill up missing offset samples with silence : Yes
Delete leading and trailing silent blocks   : No
Null samples used in CRC calculations       : Yes
Used interface                              : Native Win32 interface for Win NT & 2000
Gap handling                                : Appended to previous track

Used output format              : User Defined Encoder
Selected bitrate                : 1024 kBit/s
Quality                         : High
Add ID3 tag                     : No
Command line compressor         : C:\Program Files (x86)\Exact Audio Copy\Flac\flac.exe
Additional command line options : -8 -V -T "ARTIST=%artist%" -T "TITLE=%title%" -T "ALBUM=%albumtitle%" -T "DATE=%year%" -T "TRACKNUMBER=%tracknr%" -T "GENRE=%genre%" -T "ALBUMARTIST=%albumartist%" -T "ALBUM ARTIST=%albumartist%" -T "COMMENT=EAC Secure Mode, Test & Copy, AccurateRip, FLAC -8" %source%

TOC of the extracted CD

     Track |   Start  |  Length  | Start sector | End sector
    ---------------------------------------------------------
        1  |  0:00.00 |  9:14.35 |         0    |    41584
        2  |  9:14.35 |  6:35.63 |     41585    |    71272
        3  | 15:50.23 |  8:48.23 |     71273    |   110895
        4  | 24:38.46 |  5:42.23 |    110896    |   136568
        5  | 30:20.69 |  6:09.34 |    136569    |   164277
        6  | 36:30.28 |  8:25.52 |    164278    |   202204
        7  | 44:56.05 |  7:38.25 |    202205    |   236579
        8  | 52:34.30 |  5:04.19 |    236580    |   259398
        9  | 57:38.49 |  6:38.61 |    259399    |   289309

Track  1

     Filename C:\That is the question\Andy LaVerne - Rhapsody (2021) [FLAC] {SSCD 31905}\01 - Waltz For Debby.wav

     Pre-gap length  0:00:02.00

     Peak level 89.0 %
     Extraction speed 5.4 X
     Track quality 100.0 %
     Test CRC D6CCA0A0
     Copy CRC D6CCA0A0
     Track not present in AccurateRip database
     Copy OK

Track  2

     Filename C:\That is the question\Andy LaVerne - Rhapsody (2021) [FLAC] {SSCD 31905}\02 - Retroactive.wav

     Pre-gap length  0:00:02.57

     Peak level 96.9 %
     Extraction speed 6.1 X
     Track quality 100.0 %
     Test CRC 6F8F1AD6
     Copy CRC 6F8F1AD6
     Track not present in AccurateRip database
     Copy OK

Track  3

     Filename C:\That is the question\Andy LaVerne - Rhapsody (2021) [FLAC] {SSCD 31905}\03 - My Foolish Heart.wav

     Pre-gap length  0:00:02.57

     Peak level 86.5 %
     Extraction speed 7.0 X
     Track quality 100.0 %
     Test CRC DCA2F3A7
     Copy CRC DCA2F3A7
     Track not present in AccurateRip database
     Copy OK

Track  4

     Filename C:\That is the question\Andy LaVerne - Rhapsody (2021) [FLAC] {SSCD 31905}\04 - Autumn Leaves.wav

     Pre-gap length  0:00:02.57

     Peak level 90.0 %
     Extraction speed 6.3 X
     Track quality 99.9 %
     Test CRC C3E5617C
     Copy CRC C3E5617C
     Track not present in AccurateRip database
     Copy OK

Track  5

     Filename C:\That is the question\Andy LaVerne - Rhapsody (2021) [FLAC] {SSCD 31905}\05 - Vignette.wav

     Pre-gap length  0:00:02.57

     Peak level 89.9 %
     Extraction speed 7.9 X
     Track quality 100.0 %
     Test CRC 857901AA
     Copy CRC 857901AA
     Track not present in AccurateRip database
     Copy OK

Track  6

     Filename C:\That is the question\Andy LaVerne - Rhapsody (2021) [FLAC] {SSCD 31905}\06 - All The Things You Are.wav

     Pre-gap length  0:00:02.57

     Peak level 90.1 %
     Extraction speed 8.7 X
     Track quality 100.0 %
     Test CRC 379D9F40
     Copy CRC 379D9F40
     Track not present in AccurateRip database
     Copy OK

Track  7

     Filename C:\That is the question\Andy LaVerne - Rhapsody (2021) [FLAC] {SSCD 31905}\07 - Lunar.wav

     Pre-gap length  0:00:02.57

     Peak level 90.7 %
     Extraction speed 9.2 X
     Track quality 100.0 %
     Test CRC F68DF288
     Copy CRC F68DF288
     Track not present in AccurateRip database
     Copy OK

Track  8

     Filename C:\That is the question\Andy LaVerne - Rhapsody (2021) [FLAC] {SSCD 31905}\08 - Stella By Starlight.wav

     Pre-gap length  0:00:02.57

     Peak level 89.8 %
     Extraction speed 9.2 X
     Track quality 100.0 %
     Test CRC 441B18BC
     Copy CRC 441B18BC
     Track not present in AccurateRip database
     Copy OK

Track  9

     Filename C:\That is the question\Andy LaVerne - Rhapsody (2021) [FLAC] {SSCD 31905}\09 - Rhapsody.wav

     Pre-gap length  0:00:02.57

     Peak level 89.3 %
     Extraction speed 9.8 X
     Track quality 100.0 %
     Test CRC 42DFFFF8
     Copy CRC 42DFFFF8
     Track not present in AccurateRip database
     Copy OK

None of the tracks are present in the AccurateRip database

No errors occurred

End of status report

---- CUETools DB Plugin V2.1.6

[CTDB TOCID: MD5D6i6XM7_SJwYgJyWmrVNB_mE-] disk not present in database
Submit result: MD5D6i6XM7_SJwYgJyWmrVNB_mE- has been uploaded

==== Log checksum 2FFB9A9204A1F214A7824A5D7E41063870FB84FEC139297AC462222606C1479D ====
No seeders - write personal message to M0p94ok. Any questions - support@pro-jazz.com.
Нет сидеров - пишите в личку M0p94ok. Есть вопросы - support@pro-jazz.com
20:41
50
Нет комментариев. Ваш будет первым!