Поиск

2021 Andrea Motis & WDR Big Band - Colors & Shadows {Jazzline} [24-48]

2021 Andrea Motis & WDR Big Band - Colors & Shadows {Jazzline} [24-48]
Дата издания диска:
19 ноября 2021
Носитель:
WEB
Формат:
PCM
Тип рипа:
tracks
Контейнер:
FLAC (*.flac)
Количество каналов:
2.0
Разрядность/ЧД:
24/48
Битрейт аудио:
lossless
Время звучания:
01:03:54
Наличие сканов:
только обложка

01 - I Didn´t Tell Them Why 04:57
02 - Tabacaria 07:08
03 - Señor Blues 09:32
04 - Brisa 05:18
05 - Sense Pressa 10:16
06 - Iracema 04:17
07 - Sombra de La 05:16
08 - Save The Orangutan 05:56
09 - If You Give Them More 04:21
10 - Motis Operandi 06:53

Состав:
  • Andrea Motis vocals and trumpet
  • WDR Big Band
  • Mike Mossmann direction and arrangements
Лог проверки качества
foobar2000 1.4.3 / Dynamic Range Meter 1.1.1
log date: 2021-11-19 11:30:47
--------------------------------------------------------------------------------
Analyzed: Andrea Motis / Colors & Shadows
--------------------------------------------------------------------------------
DR         Peak         RMS     Duration Track
--------------------------------------------------------------------------------
DR11      -0.48 dB   -13.61 dB      4:57 01-I Didn´t Tell Them Why
DR10      -0.48 dB   -12.92 dB      7:09 02-Tabacaria
DR10      -0.48 dB   -13.63 dB      9:32 03-Señor Blues
DR11      -0.48 dB   -12.69 dB      5:18 04-Brisa
DR12      -0.70 dB   -15.93 dB     10:16 05-Sense Pressa
DR12      -0.48 dB   -14.41 dB      4:18 06-Iracema
DR11      -0.48 dB   -13.60 dB      5:17 07-Sombra de La
DR10      -0.48 dB   -12.83 dB      5:57 08-Save The Orangutan
DR12      -0.48 dB   -14.51 dB      4:22 09-If You Give Them More
DR11      -0.48 dB   -13.65 dB      6:54 10-Motis Operandi
--------------------------------------------------------------------------------
Number of tracks:  10
Official DR value: DR11
Samplerate:        48000 Hz
Channels:          2
Bits per sample:   24
Bitrate:           1766 kbps
Codec:             FLAC
================================================================================
Приватный:
Нет (DHT включён)
Размер:
775.16 Мб (812,812,957 байт) » файлов: 16
Участники:
106 раздают, 0 качают (106 участников всего)
Внешние участники:
10 раздают, 3 качают (13 участников всего) [ Обновить ]
13:19
393
Нет комментариев. Ваш будет первым!