Поиск

2021 AC Jazz - AC Jazz Quartets A Tribute To The Music Of Corea {AC Jazz [dist. Tratore]} [24-44.1]

2021 AC Jazz - AC Jazz Quartets A Tribute To The Music Of Corea {AC Jazz [dist. Tratore]} [24-44.1]
Стили:
Дата издания диска:
21 апреля 2021
Носитель:
WEB
Формат:
PCM
Тип рипа:
tracks
Контейнер:
FLAC (*.flac)
Количество каналов:
2.0
Разрядность/ЧД:
24/44,1
Битрейт аудио:
lossless
Наличие сканов:
только обложка

01 - Quartet No. 1 (09:51)
02 - Quartet No. 2.1 (06:48)
03 - Quartet No. 2.2 (08:28)
04 - Quartet No. 3 (10:03)
05 - Ac Quartet No. 1 (06:03)
06 - Ac Quartet No. 2.1 (06:10)
07 - Ac Quartet No. 2.2 (06:35)
08 - Three Chapters of a Friendship (11:47)
09 - Time's Lie (Bonus) (05:03)

Состав:
  • AC Jazz — producer, saxophone, arranger
Лог проверки качества
foobar2000 1.4.2 / Dynamic Range Meter 1.1.1
log date: 2021-06-10 10:24:40

--------------------------------------------------------------------------------
Analyzed: AC Jazz / AC Jazz Quartets
--------------------------------------------------------------------------------

DR         Peak         RMS     Duration Track
--------------------------------------------------------------------------------
DR10      -0.50 dB   -12.57 dB      9:52 01-Quartet No. 1
DR12      -0.71 dB   -16.49 dB      6:49 02-Quartet No. 2.1
DR10      -0.50 dB   -13.09 dB      8:29 03-Quartet No. 2.2
DR10      -0.50 dB   -13.92 dB     10:04 04-Quartet No. 3
DR11      -0.50 dB   -15.50 dB      6:03 05-Ac Quartet No. 1
DR14      -0.50 dB   -18.45 dB      6:10 06-Ac Quartet No. 2.1
DR11      -0.50 dB   -14.91 dB      6:35 07-Ac Quartet No. 2.2
DR11      -0.50 dB   -14.08 dB     11:48 08-Three Chapters of a Friendship
DR11      -0.50 dB   -14.72 dB      5:04 09-Time's Lie (BГґnus)
--------------------------------------------------------------------------------

Number of tracks:  9
Official DR value: DR11

Samplerate:        44100 Hz
Channels:          2
Bits per sample:   24
Bitrate:           1509 kbps
Codec:             FLAC
================================================================================
Приватный:
Нет (DHT включён)
Размер:
736.99 Мб (772,788,606 байт) » файлов: 10
Участники:
0 раздают, 0 качают (0 участников всего)
Внешние участники:
1 раздают, 0 качают (1 участников всего) [ Обновить ]
15:29
458
Нет комментариев. Ваш будет первым!