Поиск

2009 James Carney Group - Ways & Means {Songlines} [24-88.2]

2009 James Carney Group - Ways & Means {Songlines} [24-88.2]
Стили:
Дата издания диска:
14 июля 2009
Номер по каталогу:
SGL SA1580-2
Носитель:
WEB
Формат:
PCM
Тип рипа:
tracks
Контейнер:
FLAC (*.flac)
Количество каналов:
2.0
Разрядность/ЧД:
24/88,2
Битрейт аудио:
lossless
Наличие сканов:
буклет pdf
Страна-производитель диска (релиза):
Canada

Треклист:

01. Refurious Notions 7:15
02. Squatters 13:18
03. Champion of Honesty 3:49
04. Onendaga 9:48
05. The Business End 3:55
06. Legal Action 9:09
07. Failout 7:43
08. Pow Wow 3:30
09. Gargoyles 10:00

Состав:
  • James Carney: Acoustic & Electric Pianos, Analog Synthesizer, Glockenspiel
  • Ralph Alessi: Trumpet
  • Tony Malaby: Sax (Tenor)
  • Peter Epstein: Sax (Alto), Sax (Soprano)
  • Josh Roseman: Trombone
  • Chris Lightcap: Contrabass
  • Mark Ferber: Drums
Доп. инфо:
Лог проверки качества
foobar2000 1.3.16 / Dynamic Range Meter 1.1.1
log date: 2019-06-09 02:21:11

--------------------------------------------------------------------------------
Analyzed: James Carney Group / Ways & Means
--------------------------------------------------------------------------------

DR         Peak         RMS     Duration Track
--------------------------------------------------------------------------------
DR10      -0.40 dB   -13.84 dB      7:14 01-Nefarious Notions
DR12      -0.41 dB   -16.09 dB     13:18 02-Squatters
DR13      -0.64 dB   -18.66 dB      3:50 03-Champion of Honesty
DR12      -0.42 dB   -16.81 dB      9:48 04-Onondaga
DR12      -0.60 dB   -18.20 dB      3:55 05-The Business End
DR13      -0.41 dB   -15.90 dB      9:09 06-Legal Action
DR12      -0.40 dB   -16.53 dB      7:44 07-Fallout
DR10      -0.44 dB   -14.09 dB      3:30 08-Pow Wow
DR12      -0.40 dB   -16.81 dB     10:00 09-Gargoyles
--------------------------------------------------------------------------------

Number of tracks:  9
Official DR value: DR12

Samplerate:        88200 Hz
Channels:          2
Bits per sample:   24
Bitrate:           2355 kbps
Codec:             FLAC
================================================================================
По всем вопросам пишите личное сообщение пользователю M0p94ok.
14:10
225
Нет комментариев. Ваш будет первым!